Welcome Guest ( Log In | Register )

 
Reply to this topicStart new topic
> Agonizing Vulva - The Putrid Love Of Torture [ep] (2018), Goregrind
post Feb 13 2018, 14:49:10
Post #1

Serial Uploader
Group Icon
Group: V.I.P
Posts: 33,290
Releases: 31566
From: Lithuania
On Forums: 10 years 5 months
Thanks: 360631 time(s)
Lithuania


(IMG:https://metalarea.org/images/audiocovers/2018_Feb/acov_tid301920_thumb.jpg)

*Artist: Agonizing Vulva
*Album: The Putrid Love Of Torture [ep]
*Year: 2018
*Genre: Goregrind
*Country: Indonesia (IMG:https://metalarea.org/forum/style_images/flags/Indonesia.png)
*Format: mp3@CBR320kbps
*Size: 16MB

Tracklist:
01. Flesh Torn From The Bone 02:00
02. Gangerous Phalloplasty 02:23
03. Slurping The Bodily Fluids 02:00
04. The Putrid Love Of Torture 00:18
******************************
Total playing time: 6:41


(IMG:https://metalarea.org/images/youtube.png)

Technical info
(IMG:https://metalarea.org/images/spectrogram/2018_Feb/544be2ca19d45ba301e35c26c2fe90e4.png)
Input File: 02. Gangerous Phalloplasty.mp3
Channels : 2
Sample Rate : 44100
Precision : 16-bit
Duration : 00:02:23.09 = 6310093 samples = 10731.5 CDDA sectors
File Size : 5.87M
Bit Rate : 328k
Sample Encoding: MPEG audio (layer I, II or III)
Comments :
Title=Agonizing Vulva - Gangerous Phalloplasty
Artist=Agonizing Vulva
Album=The Putrid Love Of Torture
Tracknumber=2
Year=2018



Register


Go to the top of the page
  Insert nick Quick quote
+Quote Post

Reply to this topicStart new topic
1 User(s) are reading this topic (1 Guests and 0 Anonymous Users)
0 Members:

 



- Lo-Fi Version Support form
Copyrights and abuse reports form
Time is now: 18th November 2018 - 09:22:58