Welcome Guest ( Log In | Register )

> Ruho - Ruho [ep] (2012), Black Metal
post Feb 13 2018, 15:16:03
Post #1

...
Group Icon
Group: S-moderation team
Posts: 6,531
Releases: 1275
On Forums: 7 years 5 months
Thanks: 32731 time(s)
Croatia


(IMG:http://metalarea.org/images/audiocovers/2018_Feb/acov_tid301921_thumb.jpg)

*Artist: Ruho
*Album: Ruho [ep]
*Year: 2012
*Genre: Black Metal
*Country: Finland (IMG:http://metalarea.org/forum/style_images/flags/Finland.png)
*Format: mp3@CBR320kbps
*Size: 38MB

Tracklist:
1. God 04:24
2. Luopio 06:51
3. Tús an Deireadh 05:21
******************************
Total playing time: 16:36

Extended info
Behest CD, 200 copies.


Technical info
(IMG:http://metalarea.org/images/spectrogram/2018_Feb/9559907a24eea61c9f7c881800ba9bcb.png)
Input File: 01-ruho_-_god.mp3
Channels : 2
Sample Rate : 44100
Precision : 16-bit
Duration : 00:04:24.26 = 11653690 samples = 19819.2 CDDA sectors
File Size : 10.6M
Bit Rate : 320k
Sample Encoding: MPEG audio (layer I, II or III)
Comments :
Title=God
Artist=Ruho
Album=Ruho CD
Tracknumber=1/3
Year=2012
Genre=Black Metal
Discnumber=1/1



Register


Go to the top of the page
  Insert nick Quick quote
+Quote Post
 
Start new topic
Replies (1 - 3)
post Feb 13 2018, 15:25:49
Post #2

Правь статус, ####!111
**************
Group: Металариец
Posts: 33,662
Releases: 489
On Forums: 9 years 2 months
Thanks: 25623 time(s)
Russian Federation


@320

Register


Go to the top of the page
  Insert nick Quick quote
+Quote Post
post Feb 13 2018, 15:57:09
Post #3

Forever Underground
**************
Group: Металариец
Posts: 4,759
Releases: 0
On Forums: 3 years 4 months
Thanks: 3876 time(s)
Unknown


(IMG:style_emoticons/default/true_black.gif) raw black metal (IMG:style_emoticons/default/true_black.gif)
Go to the top of the page
  Insert nick Quick quote
+Quote Post
post Aug 14 2018, 12:21:32
Post #4

добрый мизантроп
**********
Group: Металариец
Posts: 1,338
Releases: 0
From: Минск
On Forums: 7 years 9 months
Thanks: 401 time(s)
Madagascar


Go to the top of the page
  Insert nick Quick quote
+Quote Post

Reply to this topicStart new topic
1 User(s) are reading this topic (1 Guests and 0 Anonymous Users)
0 Members:

 



- Lo-Fi Version Support form
Copyrights and abuse reports form
Time is now: 21st August 2018 - 22:44:59