Welcome Guest ( Log In | Register )

 
Reply to this topicStart new topic
> Various Artists - The Scumiest Of The Scum Vol.1 [best of/compilation] (2017), Goregrind/Pornogrind
post Feb 13 2018, 15:35:46
Post #1

Serial Uploader
Group Icon
Group: V.I.P
Posts: 32,692
Releases: 30990
From: Lithuania
On Forums: 10 years 1 week
Thanks: 355589 time(s)
Lithuania


(IMG:https://metalarea.org/images/audiocovers/2018_Feb/acov_tid301922_thumb.jpg)

*Artist: Various Artists
*Album: The Scumiest Of The Scum Vol.1 [best of/compilation]
*Year: 2017
*Genre: Goregrind/Pornogrind
*Country: Many (IMG:https://metalarea.org/forum/style_images/flags/Many.png)
*Format: mp3@CBR320kbps
*Size: 37MB

Tracklist:
Lord Piggy:
01. A Sangre Fria 02:48
Gonzo:
02. How I Milked Your Mother 01:25
Muerte Por Implosion:
03. Sexo Oral 01:29
Porno Kult:
04. Nerdly Muslim Girl Mia Khalifa In High Tube Socks 02:58
Vaginal Cadaver:
05. Rainwater Enema 00:52
Porno Fart:
06. Gonorrhea Party 01:11
Hematoputrefaction Sexologicunt:
07. Evolution Proces After 3000 01:19
Fecal Christ:
08. Pregnant Sluts Like It In The Butt 00:48
Tu Culo:
09. Prolapse Rectal 00:35
Cannibalistic Coprophagia:
10. Trax 2 00:16
Radiacion Suicyda:
11. Brain Is Over 00:48
Sangrado Anal:
12. Shit Ark 01:12
******************************
Total playing time: 15:41







Technical info
(IMG:https://metalarea.org/images/spectrogram/2018_Feb/d26ff981c0ed1104ead6cc84f011dc99.png)
Input File: 05. Vaginal Cadaver - Rainwater Enema.mp3
Channels : 2
Sample Rate : 44100
Precision : 16-bit
Duration : 00:00:52.64 = 2321468 samples = 3948.07 CDDA sectors
File Size : 2.24M
Bit Rate : 341k
Sample Encoding: MPEG audio (layer I, II or III)
Comments :
Title=Vaginal Cadaver - Rainwater Enema
Artist=Scumshot Productions
Album=THE SCUMIEST OF THE SCUM VOL.1 (Cumpilation) SSP005
Tracknumber=5
Year=2017



Register


Thanks:
Go to the top of the page
  Insert nick Quick quote
+Quote Post

Reply to this topicStart new topic
2 User(s) are reading this topic (2 Guests and 0 Anonymous Users)
0 Members:

 



- Lo-Fi Version Support form
Copyrights and abuse reports form
Time is now: 18th June 2018 - 01:11:10