Welcome Guest ( Log In | Register )

> Grok - Sacred Fire Without Form [ep] (2017), Black Metal
post Feb 13 2018, 16:17:44
Post #1

...
Group Icon
Group: S-moderation team
Posts: 6,531
Releases: 1275
On Forums: 7 years 5 months
Thanks: 32731 time(s)
Croatia


(IMG:http://metalarea.org/images/audiocovers/2018_Feb/acov_tid301923_thumb.jpg)

*Artist: Grok
*Album: Sacred Fire Without Form [ep]
*Year: 2017
*Genre: Black Metal
*Country: United States (IMG:http://metalarea.org/forum/style_images/flags/United%20States.png)
*Format: mp3@VBR260kbps
*Size: 52MB

Tracklist:
1. Their Signs and Characters 07:20
2. Grandest Conjurations (To Enchant Firearms) 06:25
3. Blood of the Finger of Saturn 07:18
4. Triad - Præ-existent Empyræal 06:32
******************************
Total playing time: 27:35

Extended info
Quest for Fire cassette, 200 copies.


Technical info
(IMG:http://metalarea.org/images/spectrogram/2018_Feb/86aef97d045e806a67b8db4880464019.png)
Input File: 01 Their Signs And Characters.mp3
Channels : 2
Sample Rate : 44100
Precision : 16-bit
Duration : 00:07:20.76 = 19437692 samples = 33057.3 CDDA sectors
File Size : 14.9M
Bit Rate : 270k
Sample Encoding: MPEG audio (layer I, II or III)
Comments :
Title=Their Signs And Characters
Artist=Grok
Album=Sacred Fire Without Form
Tracknumber=01/4
Year=2017
Discnumber=1/1



Register


Go to the top of the page
  Insert nick Quick quote
+Quote Post
 
Start new topic
Replies (1 - 1)
post Feb 14 2018, 07:06:08
Post #2

Четыре Литра
****
Group: Металариец
Posts: 302
Releases: 7
From: Подольск
On Forums: 9 years 2 months
Thanks: 288 time(s)
Russian Federation


здесь можно заценить


Thanks:
Go to the top of the page
  Insert nick Quick quote
+Quote Post

Reply to this topicStart new topic
1 User(s) are reading this topic (1 Guests and 0 Anonymous Users)
0 Members:

 



- Lo-Fi Version Support form
Copyrights and abuse reports form
Time is now: 21st August 2018 - 22:45:46