Welcome Guest ( Log In | Register )

> Releases Upload / Добавление релизов

Добавить релиз тут / Click here to add release
Рекомендованные обменники / Recommended file shares

> Grok - Sacred Fire Without Form [ep] (2017), Black Metal
post Feb 13 2018, 16:17:44
Post #1

...
Group Icon
Group: S-moderation team
Posts: 5,320
Releases: 1108
On Forums: 6 years 11 months
Thanks: 26439 time(s)
Unknown


(IMG:http://metalarea.org/images/audiocovers/2018_Feb/acov_tid301923_thumb.jpg)

*Artist: Grok
*Album: Sacred Fire Without Form [ep]
*Year: 2017
*Genre: Black Metal
*Country: United States (IMG:http://metalarea.org/forum/style_images/flags/United%20States.png)
*Format: mp3@VBR260kbps
*Size: 52MB

Tracklist:
1. Their Signs and Characters 07:20
2. Grandest Conjurations (To Enchant Firearms) 06:25
3. Blood of the Finger of Saturn 07:18
4. Triad - Præ-existent Empyræal 06:32
******************************
Total playing time: 27:35

Extended info
Quest for Fire cassette, 200 copies.


Technical info
(IMG:http://metalarea.org/images/spectrogram/2018_Feb/86aef97d045e806a67b8db4880464019.png)
Input File: 01 Their Signs And Characters.mp3
Channels : 2
Sample Rate : 44100
Precision : 16-bit
Duration : 00:07:20.76 = 19437692 samples = 33057.3 CDDA sectors
File Size : 14.9M
Bit Rate : 270k
Sample Encoding: MPEG audio (layer I, II or III)
Comments :
Title=Their Signs And Characters
Artist=Grok
Album=Sacred Fire Without Form
Tracknumber=01/4
Year=2017
Discnumber=1/1



Register


Вернуться к началу страницы
  Insert nick Quick quote
+Цитировать сообщение
 
Создать новую тему
Replies (1 - 1)
post Feb 14 2018, 07:06:08
Post #2

Три Литра
***
Group: Завсегдатай
Posts: 261
Releases: 5
From: Подольск
On Forums: 8 years 8 months
Thanks: 230 time(s)
Russian Federation


здесь можно заценить


Thanks:
Вернуться к началу страницы
  Insert nick Quick quote
+Цитировать сообщение

ОтветитьСоздать новую тему
1 User(s) are reading this topic (1 Guests and 0 Anonymous Users)
0 Members:

 



- Lo-Fi Version Support form
Copyrights and abuse reports form
Time is now: 18th February 2018 - 00:06:23