Welcome Guest ( Log In | Register )

> Atrofia - Programados Para El Caos (2018), Old School Thrash Metal (D4)
post Feb 13 2018, 16:35:15
Post #1

Правь статус, ####!111
**************
Group: Металариец
Posts: 15,018
Releases: 10288
From: Г.Харьков
On Forums: 6 years 6 months
Thanks: 169838 time(s)
Unknown


(IMG:https://metalarea.org/images/audiocovers/2018_Feb/acov_tid301924_thumb.jpg)

*Artist: Atrofia
*Album: Programados Para El Caos
*Year: 2018
*Genre: Old School Thrash Metal
*Country: Panama (IMG:https://metalarea.org/forum/style_images/flags/Panama.png)
*Format: mp3@CBR320kbps
*Size: 72MB

Tracklist:
1. Intro
2. El Gran Final
3. Se Levanta la Muerte
4. Programado Para el Caos
5. Demencia Recursiva
6. La Maquina del Odio
7. El Caos de la Bestia
8. Cáncer Global
9. Abismo de lo Insano
10. Outro
******************************
Total playing time: 35:43




Extended info
Rodrigo Manzo - Voz/Guitarra
Tony Freire - Guitarra
Alejandro Cubero - Guitarra
Wilhelm Urriola - Bajo/Coros
Adair Dominguez - Batería


Technical info
(IMG:https://metalarea.org/images/spectrogram/2018_Feb/924d80e56423df0131ee0b74e3099f8c.png)
Input File: 04 - Programado Para el Caos.mp3
Channels : 2
Sample Rate : 44100
Precision : 16-bit
Duration : 00:03:30.65 = 9289709 samples = 15798.8 CDDA sectors
File Size : 8.42M
Bit Rate : 320k
Sample Encoding: MPEG audio (layer I, II or III)
Comments :
Title=Programado Para el Caos
Artist=ATROFIA
Album=Programados para el Caos
Tracknumber=4
Year=2018
Genre=Thrash metal



Register


Go to the top of the page
  Insert nick Quick quote
+Quote Post
 
Start new topic
Replies (1 - 4)
post Feb 13 2018, 21:02:10
Post #2

MDM-Thrash Metal
**************
Group: Металариец
Posts: 7,246
Releases: 422
From: Одесса
On Forums: 11 years 3 months
Thanks: 13783 time(s)
Ukraine


А с музыкальной точки зрения очень даже и ничего. Вокал бы другой...
Go to the top of the page
  Insert nick Quick quote
+Quote Post
post Feb 14 2018, 07:30:29
Post #3

hearer & reader
**************
Group: Металариец
Posts: 7,141
Releases: 92
From: Moscow
On Forums: 11 years 2 months
Thanks: 6798 time(s)
Russian Federation


... и язык..
Go to the top of the page
  Insert nick Quick quote
+Quote Post
post Feb 14 2018, 07:48:43
Post #4

Мегаманьяк
***********
Group: Металариец
Posts: 1,636
Releases: 0
From: Dnipro
On Forums: 10 years 4 months
Thanks: 429 time(s)
Ukraine


ЦИТАТА(Andrew @ Feb 13 2018, 22:02:10) *
А с музыкальной точки зрения очень даже и ничего. Вокал бы другой...

Вокал вроде нормальный, а вот язык подвел.
Go to the top of the page
  Insert nick Quick quote
+Quote Post
post Feb 14 2018, 12:36:28
Post #5

Правь статус, ####!111
**************
Group: Металариец
Posts: 5,236
Releases: 0
From: Primorye.ru
On Forums: 7 years 7 months
Thanks: 1041 time(s)
Russian Federation


Ещё вчера слушая их миник за прошлый год сетовал, что нет полноформата до сих пор.
Programados Para El Caos неплохой, а вот с лирикой не совладаю, испанского не знаю. (IMG:style_emoticons/default/nyyy.gif)
Go to the top of the page
  Insert nick Quick quote
+Quote Post

Reply to this topicStart new topic
1 User(s) are reading this topic (1 Guests and 0 Anonymous Users)
0 Members:

 



- Lo-Fi Version Support form
Copyrights and abuse reports form
Time is now: 20th November 2018 - 23:27:15