Welcome Guest ( Log In | Register )

> Releases Upload / Добавление релизов

Добавить релиз тут / Click here to add release
Рекомендованные обменники / Recommended file shares

 
ОтветитьСоздать новую тему
> Hades Archer - Gloria Rex Infernvs [demo] (2010), Black Metal
post Feb 13 2018, 16:38:00
Post #1

...
Group Icon
Group: S-moderation team
Posts: 5,320
Releases: 1108
On Forums: 6 years 11 months
Thanks: 26439 time(s)
Unknown


(IMG:http://metalarea.org/images/audiocovers/2018_Feb/acov_tid301925_thumb.jpg)

*Artist: Hades Archer
*Album: Gloria Rex Infernvs [demo]
*Year: 2010
*Genre: Black Metal
*Country: Chile (IMG:http://metalarea.org/forum/style_images/flags/Chile.png)
*Format: mp3@VBR304kbps
*Size: 26MB

Tracklist:
1. Gloria Rex Infernvs 03:09
2. We're a Black Image into the Fire 02:15
3. Arquero de Hades 03:04
4. Ofrece tu Sangre a la Oscuridad 03:31
******************************
Total playing time: 11:59

Extended info
Kuravilú Productions cassette, 333 copies.


Technical info
(IMG:http://metalarea.org/images/spectrogram/2018_Feb/97b421db3055defa23080e9a3d90ef6b.png)
Input File: 02 We're A Black Image Into The Fire.mp3
Channels : 2
Sample Rate : 44100
Precision : 16-bit
Duration : 00:02:15.65 = 5982297 samples = 10174 CDDA sectors
File Size : 5.11M
Bit Rate : 302k
Sample Encoding: MPEG audio (layer I, II or III)
Comments :
Title=We're A Black Image Into The Fire
Artist=Hades Archer
Album=Gloria Rex Infernvs
Tracknumber=2/4
Year=2010
Discnumber=1/1



Register


Вернуться к началу страницы
  Insert nick Quick quote
+Цитировать сообщение

ОтветитьСоздать новую тему
2 User(s) are reading this topic (2 Guests and 0 Anonymous Users)
0 Members:

 



- Lo-Fi Version Support form
Copyrights and abuse reports form
Time is now: 18th February 2018 - 00:23:51