Welcome Guest ( Log In | Register )

> Releases Upload / Добавление релизов

Добавить релиз тут / Click here to add release
Рекомендованные обменники / Recommended file shares

 
ОтветитьСоздать новую тему
> Worwyk - Left Alone [single] (2018), Heavy/Power/Thrash Metal (D7)
post Feb 13 2018, 17:19:02
Post #1

Правь статус, ####!111
**************
Group: Металариец
Posts: 12,182
Releases: 8798
From: Г.Харьков
On Forums: 5 years 9 months
Thanks: 140811 time(s)
Unknown


(IMG:https://metalarea.org/images/audiocovers/2018_Feb/acov_tid301926.jpg)

*Artist: Worwyk
*Album: Left Alone [single]
*Year: 2018
*Genre: Heavy/Power/Thrash Metal
*Country: United States (IMG:https://metalarea.org/forum/style_images/flags/United%20States.png)
*Format: mp3@CBR320kbps
*Size: 10MB

Tracklist:
01. Left Alone 04:18
******************************
Total playing time: 4:18

Preview 1

Extended info
Thomas Vitacco All instruments (1988-present), Vocals (1988-2005)
See also: Insynirator, Shadows Black, Metal Force, ex-Affliction, ex-Vitalecco, ex-Etheric Despotism, ex-Koalition, ex-Rebel 81
Jason Russo Vocals (2008-present)
See also: Heidt, Metal Force, ex-Darkling, ex-Divinitus, ex-Herod, ex-Icarus Witch (live), ex-2 Minutes to Maiden, ex-Ballistic, ex-Cheap Evil, ex-Dark Ride, ex-Poetic Justice, ex-Suicide Jack


Technical info
(IMG:https://metalarea.org/images/spectrogram/2018_Feb/7d99c879f6ae28854caa463d7e7eeb7b.png)
Input File: 01 - Left Alone.mp3
Channels : 2
Sample Rate : 44100
Precision : 16-bit
Duration : 00:04:18.77 = 11411757 samples = 19407.8 CDDA sectors
File Size : 10.6M
Bit Rate : 327k
Sample Encoding: MPEG audio (layer I, II or III)
Comments :
Title=Left Alone
Artist=Worwyk
Album=Left Alone
Tracknumber=1
Year=2018
Genre=Heavy Metal



Register


Вернуться к началу страницы
  Insert nick Quick quote
+Цитировать сообщение

ОтветитьСоздать новую тему
1 User(s) are reading this topic (1 Guests and 0 Anonymous Users)
0 Members:

 



- Lo-Fi Version Support form
Copyrights and abuse reports form
Time is now: 18th February 2018 - 00:14:10