Welcome Guest ( Log In | Register )

> Releases Upload / Добавление релизов

Добавить релиз тут / Click here to add release
Рекомендованные обменники / Recommended file shares

 
ОтветитьСоздать новую тему
> House Of Apparition - House Of Apparition I [demo] (2013), Black Metal/Punk (D5)
post Feb 13 2018, 17:41:32
Post #1

...
Group Icon
Group: S-moderation team
Posts: 5,320
Releases: 1108
On Forums: 6 years 11 months
Thanks: 26439 time(s)
Unknown


(IMG:http://metalarea.org/images/audiocovers/2018_Feb/acov_tid301928.jpeg)

*Artist: House Of Apparition
*Album: House Of Apparition I [demo]
*Year: 2013
*Genre: Black Metal/Punk
*Country: United States (IMG:http://metalarea.org/forum/style_images/flags/United%20States.png)
*Format: mp3@VBR310kbps
*Size: 27MB

Tracklist:
1. Untitled 01:44
2. Untitled 03:21
3. Untitled 01:52
4. Untitled 03:05
5. Untitled 02:05
******************************
Total playing time: 12:07

Extended info
Released simultaneously with "House of Apparition II" by Dungeon Tapes on tape in a special tape-box and limited to 50 copies each.


Technical info
(IMG:http://metalarea.org/images/spectrogram/2018_Feb/8ec65beb56ca57dfe12b7cba138db1d6.png)
Input File: 01 Untitled.mp3
Channels : 2
Sample Rate : 44100
Precision : 16-bit
Duration : 00:01:44.86 = 4624106 samples = 7864.13 CDDA sectors
File Size : 4.18M
Bit Rate : 319k
Sample Encoding: MPEG audio (layer I, II or III)
Comments :
Title=Untitled
Artist=House of Apparition
Album=Dungeon Tapes 014
Tracknumber=1



Register


Вернуться к началу страницы
  Insert nick Quick quote
+Цитировать сообщение

ОтветитьСоздать новую тему
2 User(s) are reading this topic (2 Guests and 0 Anonymous Users)
0 Members:

 



- Lo-Fi Version Support form
Copyrights and abuse reports form
Time is now: 18th February 2018 - 00:21:33