Welcome Guest ( Log In | Register )

> Trouble Agency - Suspected (2017), Old School Thrash Metal (D4)
post Feb 13 2018, 17:49:58
Post #1

Правь статус, ####!111
**************
Group: Металариец
Posts: 13,957
Releases: 9737
From: Г.Харьков
On Forums: 6 years 3 months
Thanks: 159837 time(s)
Unknown


(IMG:https://metalarea.org/images/audiocovers/2018_Feb/acov_tid301929_thumb.Jpg)

*Artist: Trouble Agency
*Album: Suspected
*Year: 2017
*Genre: Old School Thrash Metal
*Country: Belgium (IMG:https://metalarea.org/forum/style_images/flags/Belgium.png)
*Format: mp3@CBR320kbps
*Size: 119MB

Tracklist:
1. Intro
2. Pawn of God
3. Survival of the Fittest
4. Tears of Blood
5. Sad
6. Back Off
7. What's Done Is Done
8. Collateral Damage
9. Suspected
10. And Then You Kneel
11. Banksters
******************************
Total playing time: 52:41

Preview 1

Extended info
Didier Vancoppenolle Guitars (rhythm), Vocals (backing) (1993-present)
Larry V. de Rostyne Guitars (lead) (2003-present)
See also: ex-Decadence
Franзois de Bock Drums, Vocals (backing) (2008-present)
See also: ex-Breathstealer
Simon Mouawad Bass (2011-present)
Kevin Nolis Vocals (2013-present)
See also: ex-Breathstealer, Wasted Years


Technical info
(IMG:https://metalarea.org/images/spectrogram/2018_Feb/72e8e4e99208c6469dd7ff59c2d45ccc.png)
Input File: 03 - Survival of the Fittest.mp3
Channels : 2
Sample Rate : 44100
Precision : 16-bit
Duration : 00:05:00.77 = 13263869 samples = 22557.6 CDDA sectors
File Size : 12.0M
Bit Rate : 320k
Sample Encoding: MPEG audio (layer I, II or III)
Comments :
Title=Survival of the Fittest
Artist=Trouble Agency
Album=Suspected
Tracknumber=3
Year=2017
Genre=Thrash Metal



Register


Go to the top of the page
  Insert nick Quick quote
+Quote Post
 
Start new topic
Replies (1 - 2)
post Feb 13 2018, 18:17:58
Post #2

Правь статус, ####!111
**************
Group: Металариец
Posts: 13,957
Releases: 9737
From: Г.Харьков
On Forums: 6 years 3 months
Thanks: 159837 time(s)
Unknown


Register


Go to the top of the page
  Insert nick Quick quote
+Quote Post
post Feb 13 2018, 20:33:52
Post #3

Аполітичний
**************
Group: Металариец
Posts: 5,146
Releases: 143
From: Тимчасово окупована територія - Юзівка
On Forums: 10 years 1 hour
Thanks: 5354 time(s)
Ukraine


Неплохо, но скоростей не хватает.
Go to the top of the page
  Insert nick Quick quote
+Quote Post

Reply to this topicStart new topic
1 User(s) are reading this topic (1 Guests and 0 Anonymous Users)
0 Members:

 



- Lo-Fi Version Support form
Copyrights and abuse reports form
Time is now: 21st August 2018 - 22:45:29