Welcome Guest ( Log In | Register )

> Releases Upload / Добавление релизов

Добавить релиз тут / Click here to add release
Рекомендованные обменники / Recommended file shares

> Trouble Agency - Suspected (2017), Old School Thrash Metal (D4)
post Feb 13 2018, 17:49:58
Post #1

Правь статус, ####!111
**************
Group: Металариец
Posts: 12,182
Releases: 8798
From: Г.Харьков
On Forums: 5 years 9 months
Thanks: 140811 time(s)
Unknown


(IMG:https://metalarea.org/images/audiocovers/2018_Feb/acov_tid301929_thumb.Jpg)

*Artist: Trouble Agency
*Album: Suspected
*Year: 2017
*Genre: Old School Thrash Metal
*Country: Belgium (IMG:https://metalarea.org/forum/style_images/flags/Belgium.png)
*Format: mp3@CBR320kbps
*Size: 119MB

Tracklist:
1. Intro
2. Pawn of God
3. Survival of the Fittest
4. Tears of Blood
5. Sad
6. Back Off
7. What's Done Is Done
8. Collateral Damage
9. Suspected
10. And Then You Kneel
11. Banksters
******************************
Total playing time: 52:41

Preview 1

Extended info
Didier Vancoppenolle Guitars (rhythm), Vocals (backing) (1993-present)
Larry V. de Rostyne Guitars (lead) (2003-present)
See also: ex-Decadence
Franзois de Bock Drums, Vocals (backing) (2008-present)
See also: ex-Breathstealer
Simon Mouawad Bass (2011-present)
Kevin Nolis Vocals (2013-present)
See also: ex-Breathstealer, Wasted Years


Technical info
(IMG:https://metalarea.org/images/spectrogram/2018_Feb/72e8e4e99208c6469dd7ff59c2d45ccc.png)
Input File: 03 - Survival of the Fittest.mp3
Channels : 2
Sample Rate : 44100
Precision : 16-bit
Duration : 00:05:00.77 = 13263869 samples = 22557.6 CDDA sectors
File Size : 12.0M
Bit Rate : 320k
Sample Encoding: MPEG audio (layer I, II or III)
Comments :
Title=Survival of the Fittest
Artist=Trouble Agency
Album=Suspected
Tracknumber=3
Year=2017
Genre=Thrash Metal



Register


Вернуться к началу страницы
  Insert nick Quick quote
+Цитировать сообщение
 
Создать новую тему
Replies (1 - 2)
post Feb 13 2018, 18:17:58
Post #2

Правь статус, ####!111
**************
Group: Металариец
Posts: 12,182
Releases: 8798
From: Г.Харьков
On Forums: 5 years 9 months
Thanks: 140811 time(s)
Unknown


Register


Вернуться к началу страницы
  Insert nick Quick quote
+Цитировать сообщение
post Feb 13 2018, 20:33:52
Post #3

Аполітичний
**************
Group: Металариец
Posts: 4,953
Releases: 143
From: Тимчасово окупована територія - Юзівка
On Forums: 9 years 5 months
Thanks: 5174 time(s)
Ukraine


Неплохо, но скоростей не хватает.
Вернуться к началу страницы
  Insert nick Quick quote
+Цитировать сообщение

ОтветитьСоздать новую тему
2 User(s) are reading this topic (2 Guests and 0 Anonymous Users)
0 Members:

 



- Lo-Fi Version Support form
Copyrights and abuse reports form
Time is now: 18th February 2018 - 00:14:40