Welcome Guest ( Log In | Register )

> Releases Upload / Добавление релизов

Добавить релиз тут / Click here to add release
Рекомендованные обменники / Recommended file shares

> Ark Storm - Voyage Of The Rage (2018), Neo-Classical Power Metal (D4)
post Feb 13 2018, 18:01:47
Post #1

Аннигилятор пивА
Group Icon
Group: V.I.P
Posts: 45,695
Releases: 13643
From: Koenigsberg - TILZIT
On Forums: 11 years 8 months
Thanks: 301921 time(s)
Russian Federation


(IMG:https://metalarea.org/images/audiocovers/2018_Feb/acov_tid301930_thumb.jpg)

*Artist: Ark Storm
*Album: Voyage Of The Rage
*Year: 2018
*Genre: Neo-Classical Power Metal
*Country: Japan (IMG:https://metalarea.org/forum/style_images/flags/Japan.png)
*Format: mp3@CBR320kbps
*Size: 121MB

Tracklist:
01. Glory Forever
02. Ablaze
03. The Reason
04. Voyage of the Rage
05. Meek to Rule the World
06. Incitation
07. World of Lies
08. Dice
09. Death Machine
10. Witchcraft Stone
******************************
Total playing time: 51:41

Extended info
Mark Boals - Vocals (Byron Nemeth, Dramatica, Forces United, Holy Force, Joshua Perahia, Lyraka, Ring of Fire, Seven the Hardway, The Codex, Vindictiv, Dio Disciples, ex-Dokken, ex-Iron Mask, ex-Labÿrinth, ex-Maestro Alex Gregory, ex-Royal Hunt, ex-Yngwie J. Malmsteen, ex-Genius, ex-Savoy Brown, ex-Ted Nugent, ex-Uli Jon Roth)
Isamu Takita - Bass (六三四, ex-ノストラダムス)
Ichiro Nagai - Drums (ex-Fortbragg, ex-Blindman, ex-Concerto Moon)
Katsu Ohta - Guitars (Katsu Ohta, ex-Astonishment, ex-Rip Van Wincle, ex-Tyrant)
Yuhki - Keyboards (Alhambra, Galneryus, Nozomu Wakai's Destinia, Yuhkinen, ex-Castle in the Air, ex-Prophesia, ex-Masatoshi Ono)



Technical info
(IMG:https://metalarea.org/images/spectrogram/2018_Feb/111f6f56a0fea93974b75524ac5d261c.png)
Input File: 02. Ablaze.mp3
Channels : 2
Sample Rate : 44100
Precision : 16-bit
Duration : 00:04:43.04 = 12482064 samples = 21228 CDDA sectors
File Size : 11.4M
Bit Rate : 322k
Sample Encoding: MPEG audio (layer I, II or III)
Comments :
Title=Ablaze
Artist=ARK STORM
Album=VOYAGE OF THE RAGE
Tracknumber=2/10
Year=2018
Discnumber=1/1



Register



Вернуться к началу страницы
  Insert nick Quick quote
+Цитировать сообщение
 
Создать новую тему
Replies (1 - 3)
post Feb 13 2018, 18:02:24
Post #2
BAN
RO till
Feb 18 2018, 18:47:57



От Олежыщ это порадовал так порадовал - отличный японский Мальм Катсу Охта со своим проектом, да еще и привлек многоуважаемого Марка Боалса - это очень крутейше! Большой стакан холодненького заработал (IMG:style_emoticons/default/9.gif)
Вернуться к началу страницы
  Insert nick Quick quote
+Цитировать сообщение
post Feb 13 2018, 18:06:09
Post #3

Аннигилятор пивА
Group Icon
Group: V.I.P
Posts: 45,695
Releases: 13643
From: Koenigsberg - TILZIT
On Forums: 11 years 8 months
Thanks: 301921 time(s)
Russian Federation


mirror
Register


Thanks:
Вернуться к началу страницы
  Insert nick Quick quote
+Цитировать сообщение
post Feb 14 2018, 17:37:03
Post #4

Маньяк
**********
Group: Металариец
Posts: 1,030
Releases: 0
From: Russian Federation - St.Petersburg
On Forums: 8 years 11 months
Thanks: 206 time(s)
Russian Federation


Ох-ох, чуть мимо не прошёл посмотрев на эти иероглифы... ! "Mark Boals - Vocals" (IMG:style_emoticons/default/smile4.gif)


Thanks:
Вернуться к началу страницы
  Insert nick Quick quote
+Цитировать сообщение

ОтветитьСоздать новую тему
1 User(s) are reading this topic (1 Guests and 0 Anonymous Users)
0 Members:

 



- Lo-Fi Version Support form
Copyrights and abuse reports form
Time is now: 18th February 2018 - 00:09:33