Welcome Guest ( Log In | Register )

> Ark Storm - Voyage Of The Rage (2018), Neo-Classical Power Metal (D4)
post Feb 13 2018, 18:01:47
Post #1

Аннигилятор пивА
Group Icon
Group: V.I.P
Posts: 46,769
Releases: 14044
From: Koenigsberg - TILZIT
On Forums: 12 years 2 weeks
Thanks: 311746 time(s)
Russian Federation


(IMG:https://metalarea.org/images/audiocovers/2018_Feb/acov_tid301930_thumb.jpg)

*Artist: Ark Storm
*Album: Voyage Of The Rage
*Year: 2018
*Genre: Neo-Classical Power Metal
*Country: Japan (IMG:https://metalarea.org/forum/style_images/flags/Japan.png)
*Format: mp3@CBR320kbps
*Size: 121MB

Tracklist:
01. Glory Forever
02. Ablaze
03. The Reason
04. Voyage of the Rage
05. Meek to Rule the World
06. Incitation
07. World of Lies
08. Dice
09. Death Machine
10. Witchcraft Stone
******************************
Total playing time: 51:41

Extended info
Mark Boals - Vocals (Byron Nemeth, Dramatica, Forces United, Holy Force, Joshua Perahia, Lyraka, Ring of Fire, Seven the Hardway, The Codex, Vindictiv, Dio Disciples, ex-Dokken, ex-Iron Mask, ex-Labÿrinth, ex-Maestro Alex Gregory, ex-Royal Hunt, ex-Yngwie J. Malmsteen, ex-Genius, ex-Savoy Brown, ex-Ted Nugent, ex-Uli Jon Roth)
Isamu Takita - Bass (六三四, ex-ノストラダムス)
Ichiro Nagai - Drums (ex-Fortbragg, ex-Blindman, ex-Concerto Moon)
Katsu Ohta - Guitars (Katsu Ohta, ex-Astonishment, ex-Rip Van Wincle, ex-Tyrant)
Yuhki - Keyboards (Alhambra, Galneryus, Nozomu Wakai's Destinia, Yuhkinen, ex-Castle in the Air, ex-Prophesia, ex-Masatoshi Ono)



Technical info
(IMG:https://metalarea.org/images/spectrogram/2018_Feb/111f6f56a0fea93974b75524ac5d261c.png)
Input File: 02. Ablaze.mp3
Channels : 2
Sample Rate : 44100
Precision : 16-bit
Duration : 00:04:43.04 = 12482064 samples = 21228 CDDA sectors
File Size : 11.4M
Bit Rate : 322k
Sample Encoding: MPEG audio (layer I, II or III)
Comments :
Title=Ablaze
Artist=ARK STORM
Album=VOYAGE OF THE RAGE
Tracknumber=2/10
Year=2018
Discnumber=1/1



Register



Go to the top of the page
  Insert nick Quick quote
+Quote Post
 
Start new topic
Replies (1 - 6)
post Feb 13 2018, 18:02:24
Post #2

Правь статус, ####!111
**************
Group: Металариец
Posts: 31,945
Releases: 486
On Forums: 9 years 2 weeks
Thanks: 24523 time(s)
Russian Federation


От Олежыщ это порадовал так порадовал - отличный японский Мальм Катсу Охта со своим проектом, да еще и привлек многоуважаемого Марка Боалса - это очень крутейше! Большой стакан холодненького заработал (IMG:style_emoticons/default/9.gif)
Go to the top of the page
  Insert nick Quick quote
+Quote Post
post Feb 13 2018, 18:06:09
Post #3

Аннигилятор пивА
Group Icon
Group: V.I.P
Posts: 46,769
Releases: 14044
From: Koenigsberg - TILZIT
On Forums: 12 years 2 weeks
Thanks: 311746 time(s)
Russian Federation


mirror
Register


Thanks:
Go to the top of the page
  Insert nick Quick quote
+Quote Post
post Feb 14 2018, 17:37:03
Post #4

Маньяк
**********
Group: Металариец
Posts: 1,073
Releases: 0
From: Russian Federation - St.Petersburg
On Forums: 9 years 3 months
Thanks: 220 time(s)
Russian Federation


Ох-ох, чуть мимо не прошёл посмотрев на эти иероглифы... ! "Mark Boals - Vocals" (IMG:style_emoticons/default/smile4.gif)


Thanks:
Go to the top of the page
  Insert nick Quick quote
+Quote Post
post May 28 2018, 12:44:54
Post #5

Правь статус, ####!111
**************
Group: Металариец
Posts: 31,945
Releases: 486
On Forums: 9 years 2 weeks
Thanks: 24523 time(s)
Russian Federation


ЦИТАТА(Olrak @ Feb 14 2018, 20:37:03) *
Mark Boals


Гарант качества (IMG:style_emoticons/default/pray.gif)
Go to the top of the page
  Insert nick Quick quote
+Quote Post
post Jun 1 2018, 12:50:39
Post #6

Наливай!
**************
Group: Металариец
Posts: 5,021
Releases: 27
From: Москва-Бибирево
On Forums: 10 years 3 months
Thanks: 2327 time(s)
Russian Federation


Те же яйца (Ring of Fire), только в профиль...
Go to the top of the page
  Insert nick Quick quote
+Quote Post
post Jun 1 2018, 12:51:05
Post #7

Правь статус, ####!111
**************
Group: Металариец
Posts: 31,945
Releases: 486
On Forums: 9 years 2 weeks
Thanks: 24523 time(s)
Russian Federation


ЦИТАТА(SAPOGi @ Jun 1 2018, 15:50:39) *
Те же яйца (Ring of Fire), только в профиль...


Так это же прекрасно (IMG:style_emoticons/default/pray.gif)
Go to the top of the page
  Insert nick Quick quote
+Quote Post

Reply to this topicStart new topic
2 User(s) are reading this topic (2 Guests and 0 Anonymous Users)
0 Members:

 



- Lo-Fi Version Support form
Copyrights and abuse reports form
Time is now: 18th June 2018 - 01:09:56