Welcome Guest ( Log In | Register )

 
Reply to this topicStart new topic
> House Of Apparition - House Of Apparition II [demo] (2013), Black Metal/Punk (D6)
post Feb 13 2018, 17:57:26
Post #1

...
Group Icon
Group: S-moderation team
Posts: 7,536
Releases: 1289
On Forums: 7 years 8 months
Thanks: 36426 time(s)
Croatia


(IMG:http://metalarea.org/images/audiocovers/2018_Feb/acov_tid301931_thumb.jpg)

*Artist: House Of Apparition
*Album: House Of Apparition II [demo]
*Year: 2013
*Genre: Black Metal/Punk
*Country: United States (IMG:http://metalarea.org/forum/style_images/flags/United%20States.png)
*Format: mp3@VBR285kbps
*Size: 13MB

Tracklist:
1. Untitled 01:42
2. Untitled 02:13
3. Untitled 02:08
******************************
Total playing time: 6:03

Extended info
Released simultaneously with "House of Apparition I" by Dungeon Tapes on tape in a special tape-box and limited to 50 copies each.


Technical info
(IMG:http://metalarea.org/images/spectrogram/2018_Feb/7d8d6621bff89ac38531acc126828e0c.png)
Input File: 01 Untitled.mp3
Channels : 2
Sample Rate : 44100
Precision : 16-bit
Duration : 00:01:42.27 = 4510063 samples = 7670.18 CDDA sectors
File Size : 3.72M
Bit Rate : 291k
Sample Encoding: MPEG audio (layer I, II or III)
Comments :
Title=Untitled
Artist=House of Apparition
Album=Dungeon Tapes 015
Tracknumber=1



Register


Go to the top of the page
  Insert nick Quick quote
+Quote Post

Reply to this topicStart new topic
1 User(s) are reading this topic (1 Guests and 0 Anonymous Users)
0 Members:

 



- Lo-Fi Version Support form
Copyrights and abuse reports form
Time is now: 20th November 2018 - 22:38:58