Welcome Guest ( Log In | Register )

> Releases Upload / Добавление релизов

Добавить релиз тут / Click here to add release
Рекомендованные обменники / Recommended file shares

> Deterrent - Re-invention (1994), Avant-Garde/Technical Thrash Metal (D6)
post Feb 13 2018, 18:03:30
Post #1

Quaerite Lux in Tenebris
**********
Group: Металариец
Posts: 1,094
Releases: 12
From: Micsődőllő
On Forums: 7 years 7 months
Thanks: 1728 time(s)
Unknown


(IMG:https://metalarea.org/images/audiocovers/2018_Feb/acov_tid301932_thumb.jpg)

*Artist: Deterrent
*Album: Re-invention
*Year: 1994
*Genre: Avant-Garde/Technical Thrash Metal
*Country: Germany (IMG:https://metalarea.org/forum/style_images/flags/Germany.png)
*Format: mp3@CBR320kbps
*Size: 185MB

Tracklist:
01. Live ! 04:00
02. Got stuck 05:50
03. The sometime 03:21
04. Sed mad 01:47
05. You know 06:58
06. The fix 04:12
07. Caged 05:39
08. Pharaos last wish 05:45
09. The last one 04:51
10. Maybe the darkest spot on ones soul 12:03
11. Mortal flesh 06:03
12. Terrortourism 09:41
13. Obey today 04:38
******************************
Total playing time: 1:14:48

Extended info
Превьюхи не нашел, но музло своеобразное и интересное, я поставил бы этот альбом рядом с Babylon Sad'92 и Cruentus (Ita) '96.


Technical info
(IMG:https://metalarea.org/images/spectrogram/2018_Feb/64db3783d02805ba8655548767245daf.png)
Input File: 10. Maybe The Darkest Spot On Ones Soul.mp3
Channels : 2
Sample Rate : 44100
Precision : 16-bit
Duration : 00:12:03.90 = 31923858 samples = 54292.3 CDDA sectors
File Size : 29.0M
Bit Rate : 320k
Sample Encoding: MPEG audio (layer I, II or III)
Comments :
Title=Maybe The Darkest Spot On Ones Soul
Artist=Deterrent
Album=Re-Invention
Tracknumber=10/13
Year=1994
Genre=144



Register


Вернуться к началу страницы
  Insert nick Quick quote
+Цитировать сообщение
 
Создать новую тему
Replies (1 - 5)
post Feb 13 2018, 18:19:26
Post #2

Quaerite Lux in Tenebris
**********
Group: Металариец
Posts: 1,094
Releases: 12
From: Micsődőllő
On Forums: 7 years 7 months
Thanks: 1728 time(s)
Unknown


Зеркало:
Register


Вернуться к началу страницы
  Insert nick Quick quote
+Цитировать сообщение
post Feb 13 2018, 18:19:54
Post #3

Аннигилятор пивА
Group Icon
Group: V.I.P
Posts: 45,695
Releases: 13643
From: Koenigsberg - TILZIT
On Forums: 11 years 8 months
Thanks: 301921 time(s)
Russian Federation


интересненько, не помню таких (IMG:style_emoticons/default/hmm.gif) странно
зы
ага, половина из группы (ритм секция) сейчас в олдовый прибруталенный дэт рубит, хорошие ребята
Вернуться к началу страницы
  Insert nick Quick quote
+Цитировать сообщение
post Feb 13 2018, 18:27:04
Post #4
BAN
RO till
Feb 18 2018, 18:47:57



@320

Register
Вернуться к началу страницы
  Insert nick Quick quote
+Цитировать сообщение
post Feb 13 2018, 19:04:48
Post #5

Ёлд ХеллоВяйне
Group Icon
Group: V.I.P
Posts: 24,794
Releases: 129
From: Питер
On Forums: 11 years 3 months
Thanks: 13483 time(s)
Russian Federation


QUOTE(SyncestrA @ 13th February 2018 - 20:03:30) *
Превьюхи не нашел


В канатике кое-что есть. По мысли довольно неплохо, но блин, даже in Soviet Russia группы лучше записывались.

https://vk.com/audios479973?performer=1&...terrent%20(Ger)
Вернуться к началу страницы
  Insert nick Quick quote
+Цитировать сообщение
post Feb 13 2018, 20:15:10
Post #6

Quaerite Lux in Tenebris
**********
Group: Металариец
Posts: 1,094
Releases: 12
From: Micsődőllő
On Forums: 7 years 7 months
Thanks: 1728 time(s)
Unknown


Old Vyaine
Там может выложено совсем в низком качестве, либо треки с демок. На выложенном альбоме со звучанием и записью все ОК.
Вернуться к началу страницы
  Insert nick Quick quote
+Цитировать сообщение

ОтветитьСоздать новую тему
1 User(s) are reading this topic (1 Guests and 0 Anonymous Users)
0 Members:

 



- Lo-Fi Version Support form
Copyrights and abuse reports form
Time is now: 18th February 2018 - 00:22:57