Welcome Guest ( Log In | Register )

> Deterrent - Re-invention (1994), Avant-Garde/Technical Thrash Metal (D6)
post Feb 13 2018, 18:03:30
Post #1

Quaerite Lux in Tenebris
**********
Group: Металариец
Posts: 1,465
Releases: 18
From: Micsődőllő
On Forums: 8 years 1 month
Thanks: 2378 time(s)
Unknown


(IMG:https://metalarea.org/images/audiocovers/2018_Feb/acov_tid301932_thumb.jpg)

*Artist: Deterrent
*Album: Re-invention
*Year: 1994
*Genre: Avant-Garde/Technical Thrash Metal
*Country: Germany (IMG:https://metalarea.org/forum/style_images/flags/Germany.png)
*Format: mp3@CBR320kbps
*Size: 185MB

Tracklist:
01. Live ! 04:00
02. Got stuck 05:50
03. The sometime 03:21
04. Sed mad 01:47
05. You know 06:58
06. The fix 04:12
07. Caged 05:39
08. Pharaos last wish 05:45
09. The last one 04:51
10. Maybe the darkest spot on ones soul 12:03
11. Mortal flesh 06:03
12. Terrortourism 09:41
13. Obey today 04:38
******************************
Total playing time: 1:14:48

Extended info
Превьюхи не нашел, но музло своеобразное и интересное, я поставил бы этот альбом рядом с Babylon Sad'92 и Cruentus (Ita) '96.


Technical info
(IMG:https://metalarea.org/images/spectrogram/2018_Feb/64db3783d02805ba8655548767245daf.png)
Input File: 10. Maybe The Darkest Spot On Ones Soul.mp3
Channels : 2
Sample Rate : 44100
Precision : 16-bit
Duration : 00:12:03.90 = 31923858 samples = 54292.3 CDDA sectors
File Size : 29.0M
Bit Rate : 320k
Sample Encoding: MPEG audio (layer I, II or III)
Comments :
Title=Maybe The Darkest Spot On Ones Soul
Artist=Deterrent
Album=Re-Invention
Tracknumber=10/13
Year=1994
Genre=144



Register


Go to the top of the page
  Insert nick Quick quote
+Quote Post
 
Start new topic
Replies (1 - 6)
post Feb 13 2018, 18:19:26
Post #2

Quaerite Lux in Tenebris
**********
Group: Металариец
Posts: 1,465
Releases: 18
From: Micsődőllő
On Forums: 8 years 1 month
Thanks: 2378 time(s)
Unknown


Зеркало:
Register


Go to the top of the page
  Insert nick Quick quote
+Quote Post
post Feb 13 2018, 18:19:54
Post #3

Аннигилятор пивА
Group Icon
Group: V.I.P
Posts: 48,124
Releases: 14600
From: Koenigsberg - TILZIT
On Forums: 12 years 2 months
Thanks: 321442 time(s)
Russian Federation


интересненько, не помню таких (IMG:style_emoticons/default/hmm.gif) странно
зы
ага, половина из группы (ритм секция) сейчас в олдовый прибруталенный дэт рубит, хорошие ребята
Go to the top of the page
  Insert nick Quick quote
+Quote Post
post Feb 13 2018, 18:27:04
Post #4

Правь статус, ####!111
**************
Group: Металариец
Posts: 33,662
Releases: 489
On Forums: 9 years 2 months
Thanks: 25623 time(s)
Russian Federation


@320

Register
Go to the top of the page
  Insert nick Quick quote
+Quote Post
post Feb 13 2018, 19:04:48
Post #5

Ёлд ХеллоВяйне
Group Icon
Group: V.I.P
Posts: 25,802
Releases: 130
From: Питер
On Forums: 11 years 9 months
Thanks: 14220 time(s)
Russian Federation


QUOTE(SyncestrA @ 13th February 2018 - 20:03:30) *
Превьюхи не нашел


В канатике кое-что есть. По мысли довольно неплохо, но блин, даже in Soviet Russia группы лучше записывались.

https://vk.com/audios479973?performer=1&...terrent%20(Ger)
Go to the top of the page
  Insert nick Quick quote
+Quote Post
post Feb 13 2018, 20:15:10
Post #6

Quaerite Lux in Tenebris
**********
Group: Металариец
Posts: 1,465
Releases: 18
From: Micsődőllő
On Forums: 8 years 1 month
Thanks: 2378 time(s)
Unknown


Old Vyaine
Там может выложено совсем в низком качестве, либо треки с демок. На выложенном альбоме со звучанием и записью все ОК.
Go to the top of the page
  Insert nick Quick quote
+Quote Post
post Feb 18 2018, 09:39:23
Post #7

стазис эпидерсис
***********
Group: Металариец
Posts: 1,892
Releases: 0
On Forums: 2 years 6 months
Thanks: 1180 time(s)
Unknown


отличное музло!
Go to the top of the page
  Insert nick Quick quote
+Quote Post

Reply to this topicStart new topic
1 User(s) are reading this topic (1 Guests and 0 Anonymous Users)
0 Members:

 



- Lo-Fi Version Support form
Copyrights and abuse reports form
Time is now: 21st August 2018 - 22:45:31