Welcome Guest ( Log In | Register )

> Infidel - III (2016), Black Metal
post Feb 13 2018, 18:18:21
Post #1


Group Icon
Group: S-moderation team
Posts: 8,793
Releases: 1429
On Forums: 7 years 11 months
Thanks: 41839 time(s)
Croatia


(IMG:http://metalarea.org/images/audiocovers/2018_Feb/acov_tid301933_thumb.jpg)

*Artist: Infidel
*Album: III
*Year: 2016
*Genre: Black Metal
*Country: Poland (IMG:http://metalarea.org/forum/style_images/flags/Poland.png)
*Format: mp3@CBR320kbps
*Size: 77MB

Tracklist:
1. I 11:06
2. II 11:06
3. III 11:06
******************************
Total playing time: 33:18

(IMG:http://metalarea.org/images/youtube.png)

Extended info
Old Temple CD. Each song length is 666 seconds.


Technical info
(IMG:http://metalarea.org/images/spectrogram/2018_Feb/06916b31cd48ead4bcc495db46dcaedf.png)
Input File: 01 I.mp3
Channels : 2
Sample Rate : 44100
Precision : 16-bit
Duration : 00:11:06.42 = 29389122 samples = 49981.5 CDDA sectors
File Size : 26.7M
Bit Rate : 320k
Sample Encoding: MPEG audio (layer I, II or III)
Comments :
Title=I
Artist=Infidel
Album=III
Tracknumber=1
Year=2016
Genre=Black Metal



Register


Go to the top of the page
  Insert nick Quick quote
+Quote Post
 
Start new topic
Replies (1 - 3)
post Feb 13 2018, 18:21:47
Post #2

Quaerite Lux in Tenebris
***********
Group: Металариец
Posts: 1,737
Releases: 34
From: Micsődőllő
On Forums: 8 years 7 months
Thanks: 2937 time(s)
Unknown


Borderline1991
Thanks a lot for quality! Great stuff!


Go to the top of the page
  Insert nick Quick quote
+Quote Post
post Feb 14 2018, 11:10:13
Post #3

Четыре Литра
****
Group: Металариец
Posts: 350
Releases: 0
On Forums: 5 years 6 months
Thanks: 192 time(s)
Australia


Very good!
Go to the top of the page
  Insert nick Quick quote
+Quote Post
post Jan 13 2019, 18:51:56
Post #4

Правь статус, ####!111
**************
Group: Металариец
Posts: 3,170
Releases: 0
From: Одесса
On Forums: 10 years 11 months
Thanks: 1397 time(s)
Ukraine


This polish team puts Marduk and the likes to shame indeed (IMG:style_emoticons/default/1488.gif)


Thanks:
(1) biroutios,
Go to the top of the page
  Insert nick Quick quote
+Quote Post

Reply to this topicStart new topic
1 User(s) are reading this topic (1 Guests and 0 Anonymous Users)
0 Members:

 



- Lo-Fi Version Support form
Copyrights and abuse reports form
Time is now: 20th February 2019 - 14:39:22