Welcome Guest ( Log In | Register )

> Infidel - III (2016), Black Metal
post Feb 13 2018, 18:18:21
Post #1

...
Group Icon
Group: S-moderation team
Posts: 6,531
Releases: 1275
On Forums: 7 years 5 months
Thanks: 32731 time(s)
Croatia


(IMG:http://metalarea.org/images/audiocovers/2018_Feb/acov_tid301933_thumb.jpg)

*Artist: Infidel
*Album: III
*Year: 2016
*Genre: Black Metal
*Country: Poland (IMG:http://metalarea.org/forum/style_images/flags/Poland.png)
*Format: mp3@CBR320kbps
*Size: 77MB

Tracklist:
1. I 11:06
2. II 11:06
3. III 11:06
******************************
Total playing time: 33:18

(IMG:http://metalarea.org/images/youtube.png)

Extended info
Old Temple CD. Each song length is 666 seconds.


Technical info
(IMG:http://metalarea.org/images/spectrogram/2018_Feb/06916b31cd48ead4bcc495db46dcaedf.png)
Input File: 01 I.mp3
Channels : 2
Sample Rate : 44100
Precision : 16-bit
Duration : 00:11:06.42 = 29389122 samples = 49981.5 CDDA sectors
File Size : 26.7M
Bit Rate : 320k
Sample Encoding: MPEG audio (layer I, II or III)
Comments :
Title=I
Artist=Infidel
Album=III
Tracknumber=1
Year=2016
Genre=Black Metal



Register


Go to the top of the page
  Insert nick Quick quote
+Quote Post
 
Start new topic
Replies (1 - 5)
post Feb 13 2018, 18:21:47
Post #2

Quaerite Lux in Tenebris
**********
Group: Металариец
Posts: 1,465
Releases: 18
From: Micsődőllő
On Forums: 8 years 1 month
Thanks: 2378 time(s)
Unknown


Borderline1991
Thanks a lot for quality! Great stuff!


Go to the top of the page
  Insert nick Quick quote
+Quote Post
post Feb 13 2018, 19:20:59
Post #3

Правь статус, ####!111
**************
Group: Металариец
Posts: 2,419
Releases: 0
From: Одесса
On Forums: 10 years 5 months
Thanks: 901 time(s)
Ukraine


Crushing and punishing release! (IMG:style_emoticons/default/metaler.gif) (IMG:style_emoticons/default/metaler.gif) (IMG:style_emoticons/default/metaler.gif) (IMG:style_emoticons/default/9.gif)


Thanks:
(1) biroutios,
Go to the top of the page
  Insert nick Quick quote
+Quote Post
post Feb 14 2018, 11:10:13
Post #4

Два Литра
**
Group: Завсегдатай
Posts: 174
Releases: 0
On Forums: 5 years 2 weeks
Thanks: 110 time(s)
Monaco


Very good!
Go to the top of the page
  Insert nick Quick quote
+Quote Post
post Feb 14 2018, 19:13:55
Post #5

Правь статус, ####!111
**************
Group: Металариец
Posts: 2,419
Releases: 0
From: Одесса
On Forums: 10 years 5 months
Thanks: 901 time(s)
Ukraine


QUOTE(biroutios @ Feb 14 2018, 11:10:13) *
Very good!

less boring than MGLA to me for instance
Go to the top of the page
  Insert nick Quick quote
+Quote Post
post Feb 15 2018, 12:12:03
Post #6

Два Литра
**
Group: Завсегдатай
Posts: 174
Releases: 0
On Forums: 5 years 2 weeks
Thanks: 110 time(s)
Monaco


QUOTE(babanguida @ Feb 14 2018, 19:13:55) *
less boring than MGLA to me for instance

I tend to agree. Much better than most of their fellow countrymen.
Go to the top of the page
  Insert nick Quick quote
+Quote Post

Reply to this topicStart new topic
1 User(s) are reading this topic (1 Guests and 0 Anonymous Users)
0 Members:

 



- Lo-Fi Version Support form
Copyrights and abuse reports form
Time is now: 21st August 2018 - 22:45:16