Welcome Guest ( Log In | Register )

> Releases Upload / Добавление релизов

Добавить релиз тут / Click here to add release
Рекомендованные обменники / Recommended file shares

> Infidel - III (2016), Black Metal
post Feb 13 2018, 18:18:21
Post #1

...
Group Icon
Group: S-moderation team
Posts: 5,320
Releases: 1108
On Forums: 6 years 11 months
Thanks: 26439 time(s)
Unknown


(IMG:http://metalarea.org/images/audiocovers/2018_Feb/acov_tid301933_thumb.jpg)

*Artist: Infidel
*Album: III
*Year: 2016
*Genre: Black Metal
*Country: Poland (IMG:http://metalarea.org/forum/style_images/flags/Poland.png)
*Format: mp3@CBR320kbps
*Size: 77MB

Tracklist:
1. I 11:06
2. II 11:06
3. III 11:06
******************************
Total playing time: 33:18

(IMG:http://metalarea.org/images/youtube.png)

Extended info
Old Temple CD. Each song length is 666 seconds.


Technical info
(IMG:http://metalarea.org/images/spectrogram/2018_Feb/06916b31cd48ead4bcc495db46dcaedf.png)
Input File: 01 I.mp3
Channels : 2
Sample Rate : 44100
Precision : 16-bit
Duration : 00:11:06.42 = 29389122 samples = 49981.5 CDDA sectors
File Size : 26.7M
Bit Rate : 320k
Sample Encoding: MPEG audio (layer I, II or III)
Comments :
Title=I
Artist=Infidel
Album=III
Tracknumber=1
Year=2016
Genre=Black Metal



Register


Вернуться к началу страницы
  Insert nick Quick quote
+Цитировать сообщение
 
Создать новую тему
Replies (1 - 5)
post Feb 13 2018, 18:21:47
Post #2

Quaerite Lux in Tenebris
**********
Group: Металариец
Posts: 1,094
Releases: 12
From: Micsődőllő
On Forums: 7 years 7 months
Thanks: 1728 time(s)
Unknown


Borderline1991
Thanks a lot for quality! Great stuff!


Вернуться к началу страницы
  Insert nick Quick quote
+Цитировать сообщение
post Feb 13 2018, 19:20:59
Post #3

rastapopoulos
**********
Group: Металариец
Posts: 1,444
Releases: 0
On Forums: 9 years 11 months
Thanks: 505 time(s)
Cameroon


Crushing and punishing release! (IMG:style_emoticons/default/metaler.gif) (IMG:style_emoticons/default/metaler.gif) (IMG:style_emoticons/default/metaler.gif) (IMG:style_emoticons/default/9.gif)


Thanks:
(1) biroutios,
Вернуться к началу страницы
  Insert nick Quick quote
+Цитировать сообщение
post Feb 14 2018, 11:10:13
Post #4

Литр
*
Group: Подсевший
Posts: 82
Releases: 0
On Forums: 4 years 6 months
Thanks: 47 time(s)
Monaco


Very good!
Вернуться к началу страницы
  Insert nick Quick quote
+Цитировать сообщение
post Feb 14 2018, 19:13:55
Post #5

rastapopoulos
**********
Group: Металариец
Posts: 1,444
Releases: 0
On Forums: 9 years 11 months
Thanks: 505 time(s)
Cameroon


QUOTE(biroutios @ Feb 14 2018, 11:10:13) *
Very good!

less boring than MGLA to me for instance
Вернуться к началу страницы
  Insert nick Quick quote
+Цитировать сообщение
post Feb 15 2018, 12:12:03
Post #6

Литр
*
Group: Подсевший
Posts: 82
Releases: 0
On Forums: 4 years 6 months
Thanks: 47 time(s)
Monaco


QUOTE(babanguida @ Feb 14 2018, 19:13:55) *
less boring than MGLA to me for instance

I tend to agree. Much better than most of their fellow countrymen.
Вернуться к началу страницы
  Insert nick Quick quote
+Цитировать сообщение

ОтветитьСоздать новую тему
2 User(s) are reading this topic (2 Guests and 0 Anonymous Users)
0 Members:

 



- Lo-Fi Version Support form
Copyrights and abuse reports form
Time is now: 18th February 2018 - 00:20:08