Welcome Guest ( Log In | Register )

> Elitist - Elitist [demo] (2015), Black Metal (D8)
post Feb 13 2018, 18:57:21
Post #1

Литр
*
Group: Подсевший
Posts: 63
Releases: 24
On Forums: 9 months 3 weeks
Thanks: 494 time(s)
United Kingdom


(IMG:http://metalarea.org/images/audiocovers/2018_Feb/acov_tid301934_thumb.jpg)

*Artist: Elitist
*Album: Elitist [demo]
*Year: 2015
*Genre: Black Metal
*Country: Germany (IMG:http://metalarea.org/forum/style_images/flags/Germany.png)
*Format: mp3@CBR320kbps
*Size: 42MB

Tracklist:
1. Hell in a Trench 02:24
2. Anti Subhuman Commando 04:59
3. Blood Red Moon 03:15
4. Temple of Baal 03:08
5. Night of the Demons 03:49
******************************
Total playing time: 17:35

Extended info
Blood and Oak...


The only release so far by Elitist is a more recent effort, but one indisputably worthy of having its named carved into the hallowed Oak here. Elitist's work is high-end black metal, produced with gusto and sheen, while refusing to compromise any of their integrity and aggression.

Showcasing an unbridled talent for writing great songs, every instrument is audible and the material reminds me of the earlier days of Gorgoroth, Marduk, Absu, and so on...

The one thing that really impresses with this cassette is the fact that it's packaged in black card with a wax seal to give it the archaic look, and for anyone that doesn't have it, the contents are sealed, and sealed well.

I've included full scans as this is apparently now sold out.


Technical info
(IMG:http://metalarea.org/images/spectrogram/2018_Feb/723538c42f9209f116b875825383f2b4.png)
Input File: 01 - Hell in a Trench.mp3
Channels : 2
Sample Rate : 44100
Precision : 16-bit
Duration : 00:02:30.17 = 6622277 samples = 11262.4 CDDA sectors
File Size : 6.01M
Bit Rate : 320k
Sample Encoding: MPEG audio (layer I, II or III)
Comments :
Title=Hell in a Trench
Artist=Elitist
Album=Elitist
Tracknumber=1
Year=2015



Register


Go to the top of the page
  Insert nick Quick quote
+Quote Post
 
Start new topic
Replies (1 - 5)
post Feb 14 2018, 09:33:45
Post #2

ZEHTAN!
*****
Group: Металариец
Posts: 483
Releases: 23
From: Germany
On Forums: 12 years 8 months
Thanks: 799 time(s)
Germany


QUOTE(Winterhordes @ Feb 13 2018, 18:57:21) *
Elitist's work is high-end black metal, produced with gusto and sheen...



(IMG:style_emoticons/default/15.gif) the reality is: poorly produced with shitty casette sound!^^ but thanks anyway! (IMG:style_emoticons/default/smile1.gif) (IMG:style_emoticons/default/smile3.gif)
Go to the top of the page
  Insert nick Quick quote
+Quote Post
post Feb 14 2018, 10:06:23
Post #3

Литр
*
Group: Подсевший
Posts: 63
Releases: 24
On Forums: 9 months 3 weeks
Thanks: 494 time(s)
United Kingdom


QUOTE(craP_cillA @ Feb 14 2018, 08:33:45) *
(IMG:style_emoticons/default/15.gif) the reality is: poorly produced with shitty casette sound!^^ but thanks anyway! (IMG:style_emoticons/default/smile1.gif) (IMG:style_emoticons/default/smile3.gif)


I really, really disagree. Are you comparing the sound quality to bands like Moonblood and Grausamkeit? This is worlds, universes improved!
What I should have perhaps said, is that for a self-released, limited cassette demo, it sounds absolutely excellent.

Either way, it sounds great for underground black metal.
Go to the top of the page
  Insert nick Quick quote
+Quote Post
post Feb 14 2018, 10:40:17
Post #4

ZEHTAN!
*****
Group: Металариец
Posts: 483
Releases: 23
From: Germany
On Forums: 12 years 8 months
Thanks: 799 time(s)
Germany


no, i'm comparing the sound to that we have the year 2018! (in this case 2015) (IMG:style_emoticons/default/smile3.gif) anyway...it's all a matter of taste..and this is not mine. (IMG:style_emoticons/default/smile1.gif)
Go to the top of the page
  Insert nick Quick quote
+Quote Post
post Feb 14 2018, 10:44:40
Post #5

Литр
*
Group: Подсевший
Posts: 63
Releases: 24
On Forums: 9 months 3 weeks
Thanks: 494 time(s)
United Kingdom


I appreciate that, and thanks for the gratitude! Bear in mind that not all bands will sound the same regardless of year (IMG:style_emoticons/default/smile1.gif)
Go to the top of the page
  Insert nick Quick quote
+Quote Post
post Aug 14 2018, 12:33:34
Post #6

добрый мизантроп
***********
Group: Металариец
Posts: 1,563
Releases: 0
From: Минск
On Forums: 8 years 6 days
Thanks: 471 time(s)
Madagascar




Thanks:
Go to the top of the page
  Insert nick Quick quote
+Quote Post

Reply to this topicStart new topic
1 User(s) are reading this topic (1 Guests and 0 Anonymous Users)
0 Members:

 



- Lo-Fi Version Support form
Copyrights and abuse reports form
Time is now: 20th November 2018 - 22:22:27