Welcome Guest ( Log In | Register )

> Animal Drive - Bite! (2018), Progressive/Heavy Metal
post Feb 13 2018, 19:19:19
Post #1

Аннигилятор пивА
Group Icon
Group: V.I.P
Posts: 48,124
Releases: 14600
From: Koenigsberg - TILZIT
On Forums: 12 years 2 months
Thanks: 321442 time(s)
Russian Federation


(IMG:https://metalarea.org/images/audiocovers/2018_Feb/acov_tid301935_thumb.jpg)

*Artist: Animal Drive
*Album: Bite!
*Year: 2018
*Genre: Progressive/Heavy Metal
*Country: Croatia (IMG:https://metalarea.org/forum/style_images/flags/Croatia.png)
*Format: mp3@CBR320kbps
*Size: 127MB

Tracklist:
01. Goddamn Marathon
02. Tower of Lies (I Walk Alone)
03. Had Enough
04. Hands of Time
05. Lights of the Damned
06. Time Machine
07. Father
08. Fade Away
09. Carry On
10. Devil Took My Beer Again
11. Deliver Me
******************************
Total playing time: 52:05



Extended info
для любителей классики жанра в современном исполнении

Animal Drive is Croatian Based Hard Rock/Heavy Metal/Progressive Metal band. Lead singer Dino Jelusic is also member of Trans-Siberian Orchestra. Band is about to release debut album early in 2018.
Influence: Whitesnake, Black Label Society, Iron Maiden, Dream Theater, Symphony X, Alice In Chains, Skid Row, Godsmack, Guns n Roses...

Dino Jelusic - Vocals
Ivan Keller - Guitars
Alen Luke - Guitars
Damjan Milekovic - Bass
Adrian Boric - Drums




Technical info
(IMG:https://metalarea.org/images/spectrogram/2018_Feb/28d511c336f1579ef8a2fb08bd0fdd19.png)
Input File: 03. Had Enough.mp3
Channels : 2
Sample Rate : 44100
Precision : 16-bit
Duration : 00:03:42.22 = 9799946 samples = 16666.6 CDDA sectors
File Size : 9.30M
Bit Rate : 335k
Sample Encoding: MPEG audio (layer I, II or III)
Comments :
Title=Had Enough
Artist=Animal Drive
Album=Bite!
Tracknumber=3/11
Year=2018
Discnumber=1/1



Register


Go to the top of the page
  Insert nick Quick quote
+Quote Post
 
Start new topic
Replies (1 - 4)
post Feb 14 2018, 05:32:50
Post #2

Аннигилятор пивА
Group Icon
Group: V.I.P
Posts: 48,124
Releases: 14600
From: Koenigsberg - TILZIT
On Forums: 12 years 2 months
Thanks: 321442 time(s)
Russian Federation


MIRROR
Register


Thanks:
Go to the top of the page
  Insert nick Quick quote
+Quote Post
post Feb 14 2018, 10:28:14
Post #3

Тридцать лет на борту "Тяжёлого" крейсера
***********
Group: Металариец
Posts: 1,773
Releases: 0
From: Питер
On Forums: 11 years 2 months
Thanks: 402 time(s)
Russian Federation


Релиз в некоторых СМИ пиарили очень круто, обещая нам рождение новых "звёзд"
Получился модернизированный примодерновый Dio с оттенками Lande, ну и всего понемногу, с периодическими отсылами к Цеппелинам и Deep Purple
Под настроение можно и послушать, но до уровня вышеупомянутых ребята не дотягивают пока
В целом, приятная работа. Возможно, продолжение будет ярче, лишь бы в явную коммерцию не скатились
Go to the top of the page
  Insert nick Quick quote
+Quote Post
post Feb 14 2018, 19:05:28
Post #4

21st Century Schizoid Man
**************
Group: Металариец
Posts: 5,195
Releases: 67
From: Moscow
On Forums: 10 years 3 months
Thanks: 4095 time(s)
Russian Federation


Превью интересное.
Go to the top of the page
  Insert nick Quick quote
+Quote Post
post Apr 24 2018, 08:02:42
Post #5

Литр
*
Group: Подсевший
Posts: 50
Releases: 0
On Forums: 5 months 1 week
Thanks: 3 time(s)
Argentina


Thanks!!! (IMG:style_emoticons/default/metaler.gif)
Go to the top of the page
  Insert nick Quick quote
+Quote Post

Reply to this topicStart new topic
1 User(s) are reading this topic (1 Guests and 0 Anonymous Users)
0 Members:

 



- Lo-Fi Version Support form
Copyrights and abuse reports form
Time is now: 21st August 2018 - 22:45:41