Welcome Guest ( Log In | Register )

 
Reply to this topicStart new topic
> Underdark & Antre - Underdark/Antre [split] (2018), Post-Black Metal | Atmospheric Black Metal
post Feb 13 2018, 19:38:49
Post #1

Правь статус, ####!616
**************
Group: Металариец
Posts: 4,423
Releases: 3017
From: 55°35’N 38°08’E
On Forums: 10 years 4 months
Thanks: 56885 time(s)
Unknown


(IMG:http://metalarea.org/images/audiocovers/2018_Feb/acov_tid301936_thumb.jpg)

*Artist: Underdark & Antre
*Album: Underdark/Antre [split]
*Year: 2018
*Genre: Post-Black Metal | Atmospheric Black Metal
*Country: United Kingdom (IMG:http://metalarea.org/forum/style_images/flags/United%20Kingdom.png) | United Kingdom (IMG:http://metalarea.org/forum/style_images/flags/United%20Kingdom.png)
*Format: mp3@CBR320kbps
*Size: 49MB

Tracklist:
Underdark:
1.The Smell of Autumn 06:32
Antre:
2.Hand of Fire 04:56
******************************
Total playing time: 11:28




Technical info
(IMG:http://metalarea.org/images/spectrogram/2018_Feb/6d687f63e3eba13a10d286dcdccd8c7e.png)
Input File: 01 Underdark - The Smell of Autumn.mp3
Channels : 2
Sample Rate : 44100
Precision : 16-bit
Duration : 00:06:33.08 = 17334740 samples = 29480.9 CDDA sectors
File Size : 15.9M
Bit Rate : 324k
Sample Encoding: MPEG audio (layer I, II or III)
Comments :
Title=Underdark - The Smell of Autumn
Artist=Underdark/Antre
Album=Split 7" with Underdark
Tracknumber=1
Year=2018
Genre=Black Metal



Register


Go to the top of the page
  Insert nick Quick quote
+Quote Post

Reply to this topicStart new topic
1 User(s) are reading this topic (1 Guests and 0 Anonymous Users)
0 Members:

 



- Lo-Fi Version Support form
Copyrights and abuse reports form
Time is now: 20th November 2018 - 22:23:00