Welcome Guest ( Log In | Register )

> И неформату есть предел.

Рэп/хип-хоп/шансон/поп удаляются. Для них есть свои порталы.

> Frank Zappa - Orchestral Favorites (1979), Experimental/Avantgarde Rock (D25)
post Feb 13 2018, 19:48:18
Post #1
BAN
Banned till
Aug 5 2018, 14:02:28



(IMG:http://metalarea.org/images/audiocovers/2018_Feb/acov_tid301937_thumb.jpg)

*Artist: Frank Zappa
*Album: Orchestral Favorites
*Year: 1979
*Genre: Experimental/Avantgarde Rock
*Country: United States (IMG:http://metalarea.org/forum/style_images/flags/United%20States.png)
*Format: mp3@CBR320kbps
*Size: 76MB

Tracklist:
01. Strictly Genteel
02. Pedro's Dowry
03. Naval Aviation in Art?
04. Duke of Prunes
05. Bogus Pomp
******************************
Total playing time: 33:57

(IMG:http://metalarea.org/images/youtube.png)

Technical info
(IMG:http://metalarea.org/images/spectrogram/2018_Feb/2341388ccdf6eebbce7193a615a6c7d8.png)
Input File: 04 - Duke Of Prunes.mp3
Channels : 2
Sample Rate : 44100
Precision : 16-bit
Duration : 00:04:20.00 = 11465956 samples = 19499.9 CDDA sectors
File Size : 10.4M
Bit Rate : 320k
Sample Encoding: MPEG audio (layer I, II or III)
Comments :
Title=Duke Of Prunes
Artist=Frank Zappa
Album=Orchestral Favorites
Tracknumber=4
Year=1979
Genre=Avant-garde



Register


Go to the top of the page
  Insert nick Quick quote
+Quote Post
 
Start new topic
Replies (1 - 2)
post Feb 13 2018, 21:24:43
Post #2
BAN
Banned till
Aug 5 2018, 14:02:28



@320

Register
Go to the top of the page
  Insert nick Quick quote
+Quote Post
post Feb 17 2018, 22:03:30
Post #3

Правь статус, ####!111
**************
Group: Металариец
Posts: 2,257
Releases: 0
From: Одесса
On Forums: 10 years 4 months
Thanks: 848 time(s)
Ukraine


best releases out there
Go to the top of the page
  Insert nick Quick quote
+Quote Post

Reply to this topicStart new topic
2 User(s) are reading this topic (2 Guests and 0 Anonymous Users)
0 Members:

 



- Lo-Fi Version Support form
Copyrights and abuse reports form
Time is now: 23rd July 2018 - 03:19:09