Welcome Guest ( Log In | Register )

> Legatus - Incommodum (2018), Melodic Death/Thrash/Doom Metal
post Feb 13 2018, 19:51:52
Post #1

Правь статус, ####!111
**************
Group: Металариец
Posts: 13,000
Releases: 9246
From: Г.Харьков
On Forums: 6 years 1 week
Thanks: 150271 time(s)
Unknown


(IMG:https://metalarea.org/images/audiocovers/2018_Feb/acov_tid301938_thumb.jpg)

*Artist: Legatus
*Album: Incommodum
*Year: 2018
*Genre: Melodic Death/Thrash/Doom Metal
*Country: Canada (IMG:https://metalarea.org/forum/style_images/flags/Canada.png)
*Format: mp3@CBR320kbps
*Size: 113MB

Tracklist:
1. Introduction 01:04
2. Brittle 06:02
3. How to Slay Your Dragon 03:44
4. Sludge 01:24
5. The Bludgeoning 07:40
6. Kill a Dead Man Dying 05:20
7. A Decrepit Fantasy 05:30
8. Sin 04:12 instrumental
9. The Show 03:56
10. Wallet Chain Creeper 06:34
11. Hammer 01:44
12. Alone 05:54
******************************
Total playing time: 53:04



Extended info
Donnie Cloutier Bass
Shawn Weyer Drums, Percussion
Michael Jones Vocals, Guitar


Technical info
(IMG:https://metalarea.org/images/spectrogram/2018_Feb/1f21f1d36afc63f30bc49c877205ad51.png)
Input File: 02 - Brittle.mp3
Channels : 2
Sample Rate : 44100
Precision : 16-bit
Duration : 00:06:02.09 = 15968213 samples = 27156.8 CDDA sectors
File Size : 14.6M
Bit Rate : 323k
Sample Encoding: MPEG audio (layer I, II or III)
Comments :
Title=Brittle
Artist=Legatus
Album=Incommodum
Tracknumber=02/12
Year=2018
Discnumber=1/1



Register


Вернуться к началу страницы
  Insert nick Quick quote
+Цитировать сообщение
 
Создать новую тему
Replies (1 - 3)
post Feb 13 2018, 20:34:06
Post #2

Правь статус, ####!111
**************
Group: Металариец
Posts: 13,000
Releases: 9246
From: Г.Харьков
On Forums: 6 years 1 week
Thanks: 150271 time(s)
Unknown


Register


Вернуться к началу страницы
  Insert nick Quick quote
+Цитировать сообщение
post Feb 13 2018, 21:06:32
Post #3

MDM-Thrash Metal
**************
Group: Металариец
Posts: 6,672
Releases: 410
From: Одесса
On Forums: 10 years 9 months
Thanks: 12733 time(s)
Ukraine


Что-то нити мелодеза не уловил вообще (IMG:style_emoticons/default/fear.gif)


Thanks:
(1) AHBAnep,
Вернуться к началу страницы
  Insert nick Quick quote
+Цитировать сообщение
post Feb 13 2018, 21:51:39
Post #4

Два Литра
**
Group: Завсегдатай
Posts: 142
Releases: 0
From: Москва
On Forums: 9 years 8 months
Thanks: 8 time(s)
Russian Federation


цитируя соплеменника "третьесорт"
Вернуться к началу страницы
  Insert nick Quick quote
+Цитировать сообщение

ОтветитьСоздать новую тему
1 User(s) are reading this topic (1 Guests and 0 Anonymous Users)
0 Members:

 



- Lo-Fi Version Support form
Copyrights and abuse reports form
Time is now: 24th May 2018 - 03:31:01