Welcome Guest ( Log In | Register )

> Releases Upload / Добавление релизов

Добавить релиз тут / Click here to add release
Рекомендованные обменники / Recommended file shares

> Balsa De Piedra - Et In Arcadia Ego (2018), Gothic Metal
post Feb 13 2018, 20:19:19
Post #1

Время Мары
**************
Group: Металариец
Posts: 2,824
Releases: 338
From: Харьков
On Forums: 8 years 8 months
Thanks: 6444 time(s)
Ukraine


(IMG:http://metalarea.org/images/audiocovers/2018_Feb/acov_tid301939_thumb.jpg)

*Artist: Balsa De Piedra
*Album: Et In Arcadia Ego
*Year: 2018
*Genre: Gothic Metal
*Country: Spain (IMG:http://metalarea.org/forum/style_images/flags/Spain.png)
*Format: mp3@CBR320kbps
*Size: 64MB

Tracklist:
1. Caer
2. Perdiendo El Paraíso
3. Pulchra Mors
4. Cortejo Fúnebre
5. Homs
6. La Última Vez
******************************
Total playing time: 28:04

Technical info
(IMG:http://metalarea.org/images/spectrogram/2018_Feb/21c9499cc0f905809475548dcd6c3378.png)
Input File: 03 - Pulchra Mors.mp3
Channels : 2
Sample Rate : 44100
Precision : 16-bit
Duration : 00:05:13.76 = 13836948 samples = 23532.2 CDDA sectors
File Size : 12.6M
Bit Rate : 321k
Sample Encoding: MPEG audio (layer I, II or III)
Comments :
Title=Pulchra Mors
Artist=Balsa De Piedra
Album=Et In Arcadia Ego
Tracknumber=3
Year=2018
Genre=Gothic Metal



Register


Вернуться к началу страницы
  Insert nick Quick quote
+Цитировать сообщение
 
Создать новую тему
Replies (1 - 1)
post Feb 13 2018, 20:56:08
Post #2

MDM-Thrash Metal
**************
Group: Металариец
Posts: 6,158
Releases: 401
From: Одесса
On Forums: 10 years 6 months
Thanks: 11701 time(s)
Ukraine




Thanks:
(2) AHBAnep, Sanc,
Вернуться к началу страницы
  Insert nick Quick quote
+Цитировать сообщение

ОтветитьСоздать новую тему
2 User(s) are reading this topic (2 Guests and 0 Anonymous Users)
0 Members:

 



- Lo-Fi Version Support form
Copyrights and abuse reports form
Time is now: 18th February 2018 - 00:07:57