Welcome Guest ( Log In | Register )

> Castlow - True Is A Trick (1991), Thrash Metal
post Feb 13 2018, 21:50:14
Post #1

Join my religion, or die
**************
Group: Металариец
Posts: 9,480
Releases: 1137
From: Питера
On Forums: 8 years 8 months
Thanks: 15442 time(s)
Russian Federation


(IMG:https://metalarea.org/images/audiocovers/2018_Feb/acov_tid301941_thumb.jpg)

*Artist: Castlow
*Album: True Is A Trick
*Year: 1991
*Genre: Thrash Metal
*Country: Mexico (IMG:https://metalarea.org/forum/style_images/flags/Mexico.png)
*Format: mp3@CBR320kbps
*Size: 90MB

Tracklist:
01. Trial Against Fate
02. True Is a Trick
03. Into the Depth of Mind
04. Self
05. Lost in the Dark
06. Made of Hate
07. Time
08. Moshroom Blitz (Sweet cover)
******************************
Total playing time: 40:00

(IMG:https://metalarea.org/images/youtube.png)

Extended info
Это 320.
Альбом выходил только на кассете, тиражом в 1000 копий.
Лучшего качества нет и наверно уже не будет.


Technical info
(IMG:https://metalarea.org/images/spectrogram/2018_Feb/67b28bf9b75a2324f53e3d6f6d96d25c.png)
Input File: 01 Trial Against Fate.mp3
Channels : 2
Sample Rate : 44100
Precision : 16-bit
Duration : 00:06:23.73 = 16922273 samples = 28779.4 CDDA sectors
File Size : 15.4M
Bit Rate : 322k
Sample Encoding: MPEG audio (layer I, II or III)
Comments :
Title=Trial Against Fate
Artist=Castlow
Album=1991 True is a Trick
Tracknumber=01/08
Year=1991
Genre=Thrash Metal



Register


Go to the top of the page
  Insert nick Quick quote
+Quote Post
 
Start new topic
Replies (1 - 4)
post Feb 14 2018, 02:23:56
Post #2

_ - = # Thrashogolic # = - _ ... а давайте поржём все вместе
**************
Group: Металариец
Posts: 20,848
Releases: 4444
From: 404
On Forums: 8 years 1 day
Thanks: 27004 time(s)
Ukraine


Жаль, не сильно-то и разобрать, что они там изменили ещё по лирике
в кавере Moshroom Blitz (Sweet cover)

https://youtu.be/o1wduZVifvs

...наверное только то, что музыкально добавили моша под окончание композиции (такой себе - как марш S.O.D)


Thanks:
(1) slack,
Go to the top of the page
  Insert nick Quick quote
+Quote Post
post Feb 15 2018, 12:30:17
Post #3

_ - = # Thrashogolic # = - _ ... а давайте поржём все вместе
**************
Group: Металариец
Posts: 20,848
Releases: 4444
From: 404
On Forums: 8 years 1 day
Thanks: 27004 time(s)
Ukraine


slack,
Register
Go to the top of the page
  Insert nick Quick quote
+Quote Post
post Feb 16 2018, 21:49:28
Post #4

Join my religion, or die
**************
Group: Металариец
Posts: 9,480
Releases: 1137
From: Питера
On Forums: 8 years 8 months
Thanks: 15442 time(s)
Russian Federation


ЦИТАТА(Genuine Thrashiac @ Feb 15 2018, 14:30:17) *
slack,

Спасибо, это с прошлого апдейта осталось. Не заметил.

ЦИТАТА(Wail @ Feb 16 2018, 06:39:23) *
The file can not be open .even from the web .

Checked. Everything is fine. Update your winrar.
Go to the top of the page
  Insert nick Quick quote
+Quote Post
post Feb 17 2018, 06:11:59
Post #5

Маньяк
**********
Group: Металариец
Posts: 1,211
Releases: 0
On Forums: 1 year 11 months
Thanks: 49 time(s)
United Kingdom


slack many thanks for reminding me to update my

winrar .the link works fine as u said .

B.T.W very nice album reminds me souls of black album

Cheerz (IMG:style_emoticons/default/9.gif)
Go to the top of the page
  Insert nick Quick quote
+Quote Post

Reply to this topicStart new topic
2 User(s) are reading this topic (2 Guests and 0 Anonymous Users)
0 Members:

 



- Lo-Fi Version Support form
Copyrights and abuse reports form
Time is now: 18th June 2018 - 01:12:26