Welcome Guest ( Log In | Register )

> Celtefog - A Faded Wisdom [ep] (2017), Atmospheric/Pagan Black Metal
post Feb 13 2018, 23:08:28
Post #1

Ёлд ХеллоВяйне
Group Icon
Group: V.I.P
Posts: 25,342
Releases: 130
From: Питер
On Forums: 11 years 6 months
Thanks: 13930 time(s)
Russian Federation


(IMG:http://metalarea.org/images/audiocovers/2018_Feb/acov_tid301943_thumb.jpg)

*Artist: Celtefog
*Album: A Faded Wisdom [ep]
*Year: 2017
*Genre: Atmospheric/Pagan Black Metal
*Country: Greece (IMG:http://metalarea.org/forum/style_images/flags/Greece.png)
*Format: mp3@CBR320kbps
*Size: 49MB

Tracklist:
1. An Ode To Wisdom 08:15
2. My Inner Winter 06:44
3. She 05:11
******************************
Total playing time: 20:10



Extended info
Archøn Celt All instruments, Vocals, Lyrics
Wolfram Drums

Дремуче, медитативно, красиво.

Честно куплено на БК.


Technical info
(IMG:http://metalarea.org/images/spectrogram/2018_Feb/8208764f397e82db7ce24f0882e70c0d.png)
Input File: Celtefog - A Faded Wisdom - 02 My Inner Winter.mp3
Channels : 2
Sample Rate : 44100
Precision : 16-bit
Duration : 00:06:44.47 = 17836907 samples = 30334.9 CDDA sectors
File Size : 16.4M
Bit Rate : 323k
Sample Encoding: MPEG audio (layer I, II or III)
Comments :
Title=My Inner Winter
Artist=Celtefog
Album=A Faded Wisdom (EP)
Tracknumber=2/3
Year=2017
Genre=Atmospheric/Pagan Black Metal



Register


Вернуться к началу страницы
  Insert nick Quick quote
+Цитировать сообщение
 
Создать новую тему
Replies (1 - 3)
post Feb 14 2018, 11:28:53
Post #2

Ёлд ХеллоВяйне
Group Icon
Group: V.I.P
Posts: 25,342
Releases: 130
From: Питер
On Forums: 11 years 6 months
Thanks: 13930 time(s)
Russian Federation


Первый трек украсила своим присутствием (вокальным, потому как внешность там сильно на любителя) широко известная в не столь уж узких кругах Hildr Valkyrie.
Второй трек почтила вниманием некая Ἀστραία.
Вернуться к началу страницы
  Insert nick Quick quote
+Цитировать сообщение
post Feb 16 2018, 17:14:05
Post #3

Девять Литров
*********
Group: Металариец
Posts: 988
Releases: 0
From: Dnipro
On Forums: 9 years 10 months
Thanks: 251 time(s)
Ukraine


Ну и куда скатывается этот грек? Играл ведь просто отличную музыку.
Вернуться к началу страницы
  Insert nick Quick quote
+Цитировать сообщение
post Feb 16 2018, 17:18:44
Post #4

Ёлд ХеллоВяйне
Group Icon
Group: V.I.P
Posts: 25,342
Releases: 130
From: Питер
On Forums: 11 years 6 months
Thanks: 13930 time(s)
Russian Federation


И продолжает это делать.
Вернуться к началу страницы
  Insert nick Quick quote
+Цитировать сообщение

ОтветитьСоздать новую тему
1 User(s) are reading this topic (1 Guests and 0 Anonymous Users)
0 Members:

 



- Lo-Fi Version Support form
Copyrights and abuse reports form
Time is now: 22nd May 2018 - 10:38:13