Welcome Guest ( Log In | Register )

> Releases Upload / Добавление релизов

Добавить релиз тут / Click here to add release
Рекомендованные обменники / Recommended file shares

> Coram Lethe - In Absence (2018), Progressive Death Metal (D5)
post Feb 14 2018, 05:32:23
Post #1

Аннигилятор пивА
Group Icon
Group: V.I.P
Posts: 45,751
Releases: 13654
From: Koenigsberg - TILZIT
On Forums: 11 years 8 months
Thanks: 302241 time(s)
Russian Federation


(IMG:https://metalarea.org/images/audiocovers/2018_Feb/acov_tid301946_thumb.jpg)

*Artist: Coram Lethe
*Album: In Absence
*Year: 2018
*Genre: Progressive Death Metal
*Country: Italy (IMG:https://metalarea.org/forum/style_images/flags/Italy.png)
*Format: mp3@CBR320kbps
*Size: 103MB

Tracklist:
1. Esoteric 02:03
2. In Absence 05:48
3. Food for Nothingness 04:54
4. Not Been Born 07:02
5. Cognitive Separation 05:50
6. Pain Represents Pained Representatives 05:53
7. Antimateria 04:29
8. To Rise Again 09:02
******************************
Total playing time: 45:01



Extended info

Francesco Miatto - Drums (1999-present) See also: ex-Lachryma Christi
Leonardo Fusi - Guitars (1999-present) See also: ex-Spleen
Filippo Occhipinti - Guitars (2006-present) See also: Dysthymia
Francesco Miatto - Drums (1999-present)
Giacomo Bortone - Vocals (2014-present) See also: CodeFour, Dysthymia
Christian Luconi Bass (2015-present) See also: ex-Violent Sun, ex-Inside Mankind, ex-Erase


Technical info
(IMG:https://metalarea.org/images/spectrogram/2018_Feb/8ab63390216945cc0a70731c5a87587e.png)
Input File: 02 In Absence.mp3
Channels : 2
Sample Rate : 44100
Precision : 16-bit
Duration : 00:05:48.88 = 15385388 samples = 26165.6 CDDA sectors
File Size : 14.0M
Bit Rate : 321k
Sample Encoding: MPEG audio (layer I, II or III)
Comments :
Title=In Absence
Artist=Coram Lethe
Album=In Absence
Tracknumber=2
Year=2018
Genre=Death Metal



Register


Вернуться к началу страницы
  Insert nick Quick quote
+Цитировать сообщение
 
Создать новую тему
Replies (1 - 1)
post Feb 14 2018, 10:20:20
Post #2

Аннигилятор пивА
Group Icon
Group: V.I.P
Posts: 45,751
Releases: 13654
From: Koenigsberg - TILZIT
On Forums: 11 years 8 months
Thanks: 302241 time(s)
Russian Federation


MIRROR
Register



Вернуться к началу страницы
  Insert nick Quick quote
+Цитировать сообщение

ОтветитьСоздать новую тему
1 User(s) are reading this topic (1 Guests and 0 Anonymous Users)
0 Members:

 



- Lo-Fi Version Support form
Copyrights and abuse reports form
Time is now: 21st February 2018 - 21:59:28