Welcome Guest ( Log In | Register )

> Coram Lethe - In Absence (2018), Progressive Death Metal (D5)
post Feb 14 2018, 05:32:23
Post #1

Аннигилятор пивА
Group Icon
Group: V.I.P
Posts: 48,095
Releases: 14590
From: Koenigsberg - TILZIT
On Forums: 12 years 2 months
Thanks: 321269 time(s)
Russian Federation


(IMG:https://metalarea.org/images/audiocovers/2018_Feb/acov_tid301946_thumb.jpg)

*Artist: Coram Lethe
*Album: In Absence
*Year: 2018
*Genre: Progressive Death Metal
*Country: Italy (IMG:https://metalarea.org/forum/style_images/flags/Italy.png)
*Format: mp3@CBR320kbps
*Size: 103MB

Tracklist:
1. Esoteric 02:03
2. In Absence 05:48
3. Food for Nothingness 04:54
4. Not Been Born 07:02
5. Cognitive Separation 05:50
6. Pain Represents Pained Representatives 05:53
7. Antimateria 04:29
8. To Rise Again 09:02
******************************
Total playing time: 45:01



Extended info

Francesco Miatto - Drums (1999-present) See also: ex-Lachryma Christi
Leonardo Fusi - Guitars (1999-present) See also: ex-Spleen
Filippo Occhipinti - Guitars (2006-present) See also: Dysthymia
Francesco Miatto - Drums (1999-present)
Giacomo Bortone - Vocals (2014-present) See also: CodeFour, Dysthymia
Christian Luconi Bass (2015-present) See also: ex-Violent Sun, ex-Inside Mankind, ex-Erase


Technical info
(IMG:https://metalarea.org/images/spectrogram/2018_Feb/8ab63390216945cc0a70731c5a87587e.png)
Input File: 02 In Absence.mp3
Channels : 2
Sample Rate : 44100
Precision : 16-bit
Duration : 00:05:48.88 = 15385388 samples = 26165.6 CDDA sectors
File Size : 14.0M
Bit Rate : 321k
Sample Encoding: MPEG audio (layer I, II or III)
Comments :
Title=In Absence
Artist=Coram Lethe
Album=In Absence
Tracknumber=2
Year=2018
Genre=Death Metal



Register


Go to the top of the page
  Insert nick Quick quote
+Quote Post
 
Start new topic
Replies (1 - 3)
post Feb 14 2018, 10:20:20
Post #2

Аннигилятор пивА
Group Icon
Group: V.I.P
Posts: 48,095
Releases: 14590
From: Koenigsberg - TILZIT
On Forums: 12 years 2 months
Thanks: 321269 time(s)
Russian Federation


MIRROR
Register



Go to the top of the page
  Insert nick Quick quote
+Quote Post
post Feb 24 2018, 14:40:23
Post #3

Аннигилятор пивА
Group Icon
Group: V.I.P
Posts: 48,095
Releases: 14590
From: Koenigsberg - TILZIT
On Forums: 12 years 2 months
Thanks: 321269 time(s)
Russian Federation


FLAC(tracks)/324 MB
Register
Go to the top of the page
  Insert nick Quick quote
+Quote Post
post Feb 28 2018, 13:46:12
Post #4

Schuldinerist
**************
Group: Металариец
Posts: 9,762
Releases: 33
From:
On Forums: 11 years 4 months
Thanks: 5906 time(s)
Russian Federation


В рамках death metal? да
Профессионально звучит? о да
Технично? да
Свежо? нет
Интересно? не особо

Короче, такого сыграно-переиграно мегатонны и гигабайты, ругать нет смысла, слушать - в общем тоже.
Но не скажу, что плохо.

7-8/10

Посмотрел свои старые отзывы - я про альбом Coram Lethe - Heterodox (2012) примерно то же самое написал...
Короче, по нисходящей итальянские товарищи движутся в плане креативности, и по восходящей по части профессиионализма и инжиниринга.
Go to the top of the page
  Insert nick Quick quote
+Quote Post

Reply to this topicStart new topic
1 User(s) are reading this topic (1 Guests and 0 Anonymous Users)
0 Members:

 



- Lo-Fi Version Support form
Copyrights and abuse reports form
Time is now: 20th August 2018 - 08:12:17