Welcome Guest ( Log In | Register )

> Releases Upload / Добавление релизов

Добавить релиз тут / Click here to add release
Рекомендованные обменники / Recommended file shares

> Mördrot - Immoral Blasphemies (2018), Old School Death Metal
post Feb 14 2018, 06:00:31
Post #1

Правь статус, ####!111
**************
Group: Металариец
Posts: 12,202
Releases: 8814
From: Г.Харьков
On Forums: 5 years 9 months
Thanks: 141125 time(s)
Unknown


(IMG:https://metalarea.org/images/audiocovers/2018_Feb/acov_tid301948_thumb.jpg)

*Artist: Mördrot
*Album: Immoral Blasphemies
*Year: 2018
*Genre: Old School Death Metal
*Country: United States (IMG:https://metalarea.org/forum/style_images/flags/United%20States.png)
*Format: mp3@CBR320kbps
*Size: 72MB

Tracklist:
1. Sacrificial Fires 02:30
2. Casket Reposession 01:58
3. Murderia 03:29
4. Wretched 03:38
5. For Survival 03:06
6. Unburied 02:27
7. Soul Expulsion 02:55
8. Skinned 02:42
9. Condemned Undead 03:19
10. Before the Rot 03:00
11. Immoral Blasphemies 02:27
******************************
Total playing time: 31:31



Extended info
Nick Donner - Guitars, Vocals (tracks 1-6) (Despise, ex-Mördwolf)
Mitch Robbie - Drums (Despise, ex-Mördwolf)
Brian J. Huebner - Bass, Vocals (tracks 1-6), Guitars, Vocals (tracks 7-11) (Cold Colours, Vorpal Bunny, ex-Baal Therocles, ex-Mördwolf, ex-Seventh Calling, ex-Epicurean, ex-Inflict)
Vern Sav DeFoe - Bass


Technical info
(IMG:https://metalarea.org/images/spectrogram/2018_Feb/ef59534b4289227570138b7286055488.png)
Input File: 03 Murderia.mp3
Channels : 2
Sample Rate : 44100
Precision : 16-bit
Duration : 00:03:29.50 = 9238730 samples = 15712.1 CDDA sectors
File Size : 8.42M
Bit Rate : 322k
Sample Encoding: MPEG audio (layer I, II or III)
Comments :
Title=Murderia
Artist=Mördrot
Album=Immoral Blasphemies
Tracknumber=3
Year=2018



Register


Вернуться к началу страницы
  Insert nick Quick quote
+Цитировать сообщение
 
Создать новую тему
Replies (1 - 2)
post Feb 14 2018, 10:25:42
Post #2

Правь статус, ####!111
**************
Group: Металариец
Posts: 12,202
Releases: 8814
From: Г.Харьков
On Forums: 5 years 9 months
Thanks: 141125 time(s)
Unknown


Register


Вернуться к началу страницы
  Insert nick Quick quote
+Цитировать сообщение
post Feb 15 2018, 03:10:50
Post #3

\m/
Group Icon
Group: S-moderation team
Posts: 7,340
Releases: 19
From: Петропавловск-Камчатский
On Forums: 8 years 8 months
Thanks: 6492 time(s)
Russian Federation


По превью интересно. Вокалист манерой пения, да и в музыке прослеживается, похоже на Asphyx.
Вернуться к началу страницы
  Insert nick Quick quote
+Цитировать сообщение

ОтветитьСоздать новую тему
1 User(s) are reading this topic (1 Guests and 0 Anonymous Users)
0 Members:

 



- Lo-Fi Version Support form
Copyrights and abuse reports form
Time is now: 21st February 2018 - 21:35:49