Welcome Guest ( Log In | Register )

> Genocide Method - Forged In Death (2018), Melodic Death Metal
post Feb 14 2018, 06:38:22
Post #1

Правь статус, ####!111
**************
Group: Металариец
Posts: 13,957
Releases: 9737
From: Г.Харьков
On Forums: 6 years 3 months
Thanks: 159837 time(s)
Unknown


(IMG:https://metalarea.org/images/audiocovers/2018_Feb/acov_tid301949_thumb.png)

*Artist: Genocide Method
*Album: Forged In Death
*Year: 2018
*Genre: Melodic Death Metal
*Country: United States (IMG:https://metalarea.org/forum/style_images/flags/United%20States.png)
*Format: mp3@CBR320kbps
*Size: 91MB

Tracklist:
1. Kiss Of Death
2. Legends Of The Sky
3. Empress
4. Bathe In Their Blood
5. Infest Us
6. Fortress
7. Arranged For Display
******************************
Total playing time: 36:35



Extended info
Geoff Padilla Drums (2013-present)
Brian Shaw Guitars (2013-present)
Kyle Gravitz Guitars (2015-present)
Panda Vocals (2016-present)
Chandler McCown Bass (2017-present)


Technical info
(IMG:https://metalarea.org/images/spectrogram/2018_Feb/e171cc6383af0a84d414a781cc1daadf.png)
Input File: 03 Empress.mp3
Channels : 2
Sample Rate : 44100
Precision : 16-bit
Duration : 00:05:36.81 = 14853101 samples = 25260.4 CDDA sectors
File Size : 14.5M
Bit Rate : 344k
Sample Encoding: MPEG audio (layer I, II or III)
Comments :
Title=Empress
Artist=Genocide Method
Album=Forged in Death
Tracknumber=3
Year=2018
Genre=Death Metal
Discnumber=1



Register


Go to the top of the page
  Insert nick Quick quote
+Quote Post
 
Start new topic
Replies (1 - 1)
post Feb 14 2018, 10:29:07
Post #2

Правь статус, ####!111
**************
Group: Металариец
Posts: 13,957
Releases: 9737
From: Г.Харьков
On Forums: 6 years 3 months
Thanks: 159837 time(s)
Unknown


Register


Thanks:
Go to the top of the page
  Insert nick Quick quote
+Quote Post

Reply to this topicStart new topic
1 User(s) are reading this topic (1 Guests and 0 Anonymous Users)
0 Members:

 



- Lo-Fi Version Support form
Copyrights and abuse reports form
Time is now: 21st August 2018 - 22:48:00