Welcome Guest ( Log In | Register )

> Releases Upload / Добавление релизов

Добавить релиз тут / Click here to add release
Рекомендованные обменники / Recommended file shares

> Anyparxia - Nothingness [ep] (2018), Doom/Death Metal
post Feb 14 2018, 09:41:15
Post #1

Аннигилятор пивА
Group Icon
Group: V.I.P
Posts: 45,751
Releases: 13654
From: Koenigsberg - TILZIT
On Forums: 11 years 8 months
Thanks: 302238 time(s)
Russian Federation


(IMG:https://metalarea.org/images/audiocovers/2018_Feb/acov_tid301950_thumb.jpg)

*Artist: Anyparxia
*Album: Nothingness [ep]
*Year: 2018
*Genre: Doom/Death Metal
*Country: Belarus (IMG:https://metalarea.org/forum/style_images/flags/Belarus.png)
*Format: mp3@CBR320kbps
*Size: 37MB

Tracklist:
1. No Thoughts 05:44
2. No Pain 08:07
3. No Life 04:07
******************************
Total playing time: 17:58

Technical info
(IMG:https://metalarea.org/images/spectrogram/2018_Feb/384f054bdf7ee314a5804c3150711935.png)
Input File: 02-No Pain.mp3
Channels : 2
Sample Rate : 44100
Precision : 16-bit
Duration : 00:08:08.36 = 21536632 samples = 36626.9 CDDA sectors
File Size : 19.5M
Bit Rate : 320k
Sample Encoding: MPEG audio (layer I, II or III)
Comments :
Title=No Pain
Artist=Anyparxia
Album=Nothingness
Tracknumber=2
Year=2018
Genre=Doom/Death Metal



Register


Вернуться к началу страницы
  Insert nick Quick quote
+Цитировать сообщение
 
Создать новую тему
Replies (1 - 2)
post Feb 14 2018, 12:19:57
Post #2

Ёлд ХеллоВяйне
Group Icon
Group: V.I.P
Posts: 24,805
Releases: 130
From: Питер
On Forums: 11 years 3 months
Thanks: 13536 time(s)
Russian Federation


https://vk.com/audios479973?performer=1&q=Anyparxia


Thanks:
(1) Sanc,
Вернуться к началу страницы
  Insert nick Quick quote
+Цитировать сообщение
post Feb 16 2018, 09:21:45
Post #3

赑屃
**
Group: Завсегдатай
Posts: 156
Releases: 5
From: Луганск
On Forums: 10 months 2 weeks
Thanks: 86 time(s)
Russian Federation


По моему, совершенно постороннему мнению, первые две песни - совершенно безликие и быстрые, что понос, мелодик дум-дэзовые темы, коих пруд пруди и которые совершенно неразличимы на слух среди тысяч таких же.. А вот если ребята станут продолжать в ключе третьей песни, то у них всё получится в дальнейшем. Гроул, мощь, нормированные приятные клавиши, медленный темп, общая печаль - всё по фен-шую..

Anyparxia - "Nothingness" (EP, 2018) https://youtu.be/KEQSGCIOmfs
Вернуться к началу страницы
  Insert nick Quick quote
+Цитировать сообщение

ОтветитьСоздать новую тему
1 User(s) are reading this topic (1 Guests and 0 Anonymous Users)
0 Members:

 



- Lo-Fi Version Support form
Copyrights and abuse reports form
Time is now: 21st February 2018 - 21:39:48