Welcome Guest ( Log In | Register )

 
ОтветитьСоздать новую тему
> Cryptic Grave - Cryptic Grave [ep] (2017), Old School Death Metal
post Feb 14 2018, 10:01:55
Post #1

Правь статус, ####!111
**************
Group: Металариец
Posts: 13,032
Releases: 9252
From: Г.Харьков
On Forums: 6 years 1 week
Thanks: 150418 time(s)
Unknown


(IMG:https://metalarea.org/images/audiocovers/2018_Feb/acov_tid301951_thumb.jpg)

*Artist: Cryptic Grave
*Album: Cryptic Grave [ep]
*Year: 2017
*Genre: Old School Death Metal
*Country: France (IMG:https://metalarea.org/forum/style_images/flags/France.png)
*Format: mp3@CBR320kbps
*Size: 51MB

Tracklist:
1. Through Death's Door (Intro) 01:28
2. Self-Mummified 05:14
3. Sadistic Funeral 04:24
4. Opened Corpse 04:29
5. Vengeance of Death 04:29
6. The Last Hour (Outro) 02:19
******************************
Total playing time: 22:23




Extended info
GooglePlay rip
Richard : Guitare & voix (Vermeth ; ex-Torgeist ; ex-Hellraper) ||
J-B : Guitare ||
Gaby : Basse (Bagarre Générale) ||


Technical info
(IMG:https://metalarea.org/images/spectrogram/2018_Feb/ba63531cb37595c3bf6eb9058b409901.png)
Input File: 02 - Self-Mummified.mp3
Channels : 2
Sample Rate : 44100
Precision : 16-bit
Duration : 00:05:15.14 = 13897498 samples = 23635.2 CDDA sectors
File Size : 12.6M
Bit Rate : 320k
Sample Encoding: MPEG audio (layer I, II or III)
Comments :
Title=Self-Mummified
Artist=Cryptic Grave
Album=Cryptic Grave
Tracknumber=2
Year=2017
Genre=Death Metal



Register


Вернуться к началу страницы
  Insert nick Quick quote
+Цитировать сообщение

ОтветитьСоздать новую тему
1 User(s) are reading this topic (1 Guests and 0 Anonymous Users)
0 Members:

 



- Lo-Fi Version Support form
Copyrights and abuse reports form
Time is now: 25th May 2018 - 02:15:37