Welcome Guest ( Log In | Register )

 
Reply to this topicStart new topic
> Камни - Кресты [single] (2018), Psychedelic Doom/Stoner Metal (D4)
post Feb 14 2018, 12:18:55
Post #1

Время Мары
**************
Group: Металариец
Posts: 2,958
Releases: 382
From: Харьков
On Forums: 9 years 5 months
Thanks: 7324 time(s)
Ukraine


(IMG:http://metalarea.org/images/audiocovers/2018_Feb/acov_tid301953_thumb.jpg)

*Artist: Камни
*Album: Кресты [single]
*Year: 2018
*Genre: Psychedelic Doom/Stoner Metal
*Country: Russian Federation (IMG:http://metalarea.org/forum/style_images/flags/Russian%20Federation.png)
*Format: mp3@CBR320kbps
*Size: 11MB

Tracklist:
1. Кресты
******************************
Total playing time: 5:08

Technical info
(IMG:http://metalarea.org/images/spectrogram/2018_Feb/171f4f7d8ff312be10942ab0c4822174.png)
Input File: 01. Кресты.mp3
Channels : 2
Sample Rate : 48000
Precision : 16-bit
Duration : 00:05:07.20 = 14745744 samples ~ 23040.2 CDDA sectors
File Size : 12.5M
Bit Rate : 324k
Sample Encoding: MPEG audio (layer I, II or III)
Comments :
Title=Кресты
Artist=Камни
Album=Кресты (Single)
Tracknumber=1
Year=2018
Genre=Doom Metal, Psychedelic Stoner Metal



Register


Go to the top of the page
  Insert nick Quick quote
+Quote Post

Reply to this topicStart new topic
1 User(s) are reading this topic (1 Guests and 0 Anonymous Users)
0 Members:

 



- Lo-Fi Version Support form
Copyrights and abuse reports form
Time is now: 19th November 2018 - 11:01:17