Welcome Guest ( Log In | Register )

 
ОтветитьСоздать новую тему
> Gloryhole Guillotine - Truncate [ep] (2018), Death Metal/Grindcore
post Feb 14 2018, 13:55:02
Post #1

Serial Uploader
Group Icon
Group: V.I.P
Posts: 32,454
Releases: 30758
From: Lithuania
On Forums: 9 years 11 months
Thanks: 353346 time(s)
Lithuania


(IMG:https://metalarea.org/images/audiocovers/2018_Feb/acov_tid301955_thumb.jpg)

*Artist: Gloryhole Guillotine
*Album: Truncate [ep]
*Year: 2018
*Genre: Death Metal/Grindcore
*Country: United States (IMG:https://metalarea.org/forum/style_images/flags/United%20States.png)
*Format: mp3@CBR320kbps
*Size: 21MB

Tracklist:
01. Fucked By God 02:24
02. Picky Eater 00:56
03. Vampiric Hunger Gestation 01:14
04. Truth Or Consequences 00:38
05. Infected Asshole 02:13
06. Beating Up Kids At The Bible Study 01:42
******************************
Total playing time: 9:07




Technical info
(IMG:https://metalarea.org/images/spectrogram/2018_Feb/cc43f1ddf092feb0d81217f88d5d31c8.png)
Input File: 02. Picky Eater.mp3
Channels : 2
Sample Rate : 44100
Precision : 16-bit
Duration : 00:00:56.85 = 2506953 samples = 4263.53 CDDA sectors
File Size : 2.38M
Bit Rate : 334k
Sample Encoding: MPEG audio (layer I, II or III)
Comments :
Title=Picky Eater
Artist=Gloryhole Guillotine
Album=Truncate
Tracknumber=2
Year=2018



Register


Вернуться к началу страницы
  Insert nick Quick quote
+Цитировать сообщение

ОтветитьСоздать новую тему
1 User(s) are reading this topic (1 Guests and 0 Anonymous Users)
0 Members:

 



- Lo-Fi Version Support form
Copyrights and abuse reports form
Time is now: 23rd May 2018 - 12:09:57