Welcome Guest ( Log In | Register )

 
Reply to this topicStart new topic
> Lux In Tenebris - Sangre Inocente (2017), Progressive Heavy Metal
post Feb 14 2018, 14:10:20
Post #1

Serial Uploader
Group Icon
Group: V.I.P
Posts: 33,290
Releases: 31566
From: Lithuania
On Forums: 10 years 5 months
Thanks: 360629 time(s)
Lithuania


(IMG:https://metalarea.org/images/audiocovers/2018_Feb/acov_tid301956_thumb.jpg)

*Artist: Lux In Tenebris
*Album: Sangre Inocente
*Year: 2017
*Genre: Progressive Heavy Metal
*Country: Argentina (IMG:https://metalarea.org/forum/style_images/flags/Argentina.png)
*Format: mp3@CBR320kbps
*Size: 118MB

Tracklist:
01. La Tierra Sin Mal 10:50
02. La Guardia De La Noche 08:52
03. Pirámide 05:58
04. Déjame Entrar (Nieve, Sangre Y Amor) 06:31
05. Ni Una Menos 07:06
06. El Reinado Del Terror 06:04
07. Pripyat 06:36
******************************
Total playing time: 51:57


(IMG:https://metalarea.org/images/youtube.png)

Technical info
(IMG:https://metalarea.org/images/spectrogram/2018_Feb/df6743fd8aac41764e0114f362e56685.png)
Input File: 02. La Guardia De La Noche.mp3
Channels : 2
Sample Rate : 44100
Precision : 16-bit
Duration : 00:08:52.74 = 23493922 samples = 39955.6 CDDA sectors
File Size : 21.3M
Bit Rate : 320k
Sample Encoding: MPEG audio (layer I, II or III)
Comments :
Title=La Guardia De La Noche
Artist=Lux In Tenebris
Album=Sangre Inocente
Tracknumber=2/7
Year=2018



Register


Go to the top of the page
  Insert nick Quick quote
+Quote Post

Reply to this topicStart new topic
1 User(s) are reading this topic (1 Guests and 0 Anonymous Users)
0 Members:

 



- Lo-Fi Version Support form
Copyrights and abuse reports form
Time is now: 18th November 2018 - 09:07:32