Welcome Guest ( Log In | Register )

 
Reply to this topicStart new topic
> Disgunt - To Purge The Plague (2018), Death Metal/Deathcore
post Feb 14 2018, 14:33:13
Post #1

Serial Uploader
Group Icon
Group: V.I.P
Posts: 33,291
Releases: 31567
From: Lithuania
On Forums: 10 years 5 months
Thanks: 360677 time(s)
Lithuania


(IMG:https://metalarea.org/images/audiocovers/2018_Feb/acov_tid301958_thumb.jpg)

*Artist: Disgunt
*Album: To Purge The Plague
*Year: 2018
*Genre: Death Metal/Deathcore
*Country: United States (IMG:https://metalarea.org/forum/style_images/flags/United%20States.png)
*Format: mp3@CBR320kbps
*Size: 89MB

Tracklist:
01. The Culling 02:21
02. Epidemic With A Violent End 04:04
03. Circle Of Life Lost 04:54
04. When Violence Becomes Moral 03:27
05. Focus 03:40
06. God Complex 03:21
07. Branded In Filth 04:29
08. To Purge The Plague 04:16
09. Piss On The Ashes 04:49
10. Untitled Bonus Track 03:35
******************************
Total playing time: 38:56



(IMG:https://metalarea.org/images/youtube.png)

Technical info
(IMG:https://metalarea.org/images/spectrogram/2018_Feb/690e1768a942da5bf0a9d3c64607c7fa.png)
Input File: 02. Epidemic With a Violent End.mp3
Channels : 2
Sample Rate : 44100
Precision : 16-bit
Duration : 00:04:04.61 = 10787301 samples = 18345.8 CDDA sectors
File Size : 9.79M
Bit Rate : 320k
Sample Encoding: MPEG audio (layer I, II or III)
Comments :
Title=Epidemic With a Violent End
Artist=Disgunt
Album=To Purge the Plague
Tracknumber=2/10
Year=2018



Register


Go to the top of the page
  Insert nick Quick quote
+Quote Post

Reply to this topicStart new topic
1 User(s) are reading this topic (1 Guests and 0 Anonymous Users)
0 Members:

 



- Lo-Fi Version Support form
Copyrights and abuse reports form
Time is now: 19th November 2018 - 10:35:43