Welcome Guest ( Log In | Register )

> Icefire - The Torment Of The Damned (2018), Heavy Metal
post Feb 14 2018, 14:49:11
Post #1

Serial Uploader
Group Icon
Group: V.I.P
Posts: 32,942
Releases: 31233
From: Lithuania
On Forums: 10 years 2 months
Thanks: 357648 time(s)
Lithuania


(IMG:https://metalarea.org/images/audiocovers/2018_Feb/acov_tid301959_thumb.jpg)

*Artist: Icefire
*Album: The Torment Of The Damned
*Year: 2018
*Genre: Heavy Metal
*Country: United Kingdom (IMG:https://metalarea.org/forum/style_images/flags/United%20Kingdom.png)
*Format: mp3@CBR320kbps
*Size: 101MB

Tracklist:
01. Icefire
02. Crossing The Line
03. The Stalker
04. Photograph
05. The Highwayman
06. Banshee
07. Dead Of Night
08. Lord Of The Dance
******************************
Total playing time: 44:16



Technical info
(IMG:https://metalarea.org/images/spectrogram/2018_Feb/2c114bc111a8621722fd9911852bd7ba.png)
Input File: 02. Crossing the Line.mp3
Channels : 2
Sample Rate : 44100
Precision : 16-bit
Duration : 00:04:52.31 = 12891047 samples = 21923.5 CDDA sectors
File Size : 11.7M
Bit Rate : 320k
Sample Encoding: MPEG audio (layer I, II or III)
Comments :
Title=Crossing the Line
Artist=Icefire
Album=The Torment of the Damned
Tracknumber=2/8
Year=2018



Register


Go to the top of the page
  Insert nick Quick quote
+Quote Post
 
Start new topic
Replies (1 - 5)
post Feb 14 2018, 20:28:27
Post #2

MDM-Thrash Metal
**************
Group: Металариец
Posts: 6,963
Releases: 412
From: Одесса
On Forums: 11 years 1 week
Thanks: 13248 time(s)
Ukraine


Register


Thanks:
Go to the top of the page
  Insert nick Quick quote
+Quote Post
post Feb 15 2018, 06:44:47
Post #3

hearer & reader
**************
Group: Металариец
Posts: 6,684
Releases: 84
From: Moscow
On Forums: 10 years 11 months
Thanks: 6544 time(s)
Russian Federation


Своеобразный женский вокал, на любителя..


Thanks:
Go to the top of the page
  Insert nick Quick quote
+Quote Post
post Feb 17 2018, 14:45:29
Post #4

Перевозчик
**************
Group: Металариец
Posts: 2,754
Releases: 0
On Forums: 10 years 1 month
Thanks: 572 time(s)
Russian Federation


Гумно.



Thanks:
Go to the top of the page
  Insert nick Quick quote
+Quote Post
post Mar 9 2018, 10:23:17
Post #5

South Of Heaven /адепт ВУДУ
**************
Group: Металариец
Posts: 12,651
Releases: 7
From: Санкт-Петербург
On Forums: 8 years 4 months
Thanks: 4601 time(s)
Russian Federation


ЦИТАТА(AHBAnep @ Feb 15 2018, 08:44:47) *
Своеобразный женский вокал, на любителя..

Согласен категорически.
Но меня превью чем-то слегка цепануло, поэтому, пожалуй, скачаю и послушаю полностью альбом.

Вот, кстати, их дебютник, на МА его почему-то нет.
Спасибо Dorostorym (IMG:style_emoticons/default/9.gif)
93/320
Register
Go to the top of the page
  Insert nick Quick quote
+Quote Post
post Mar 11 2018, 07:03:44
Post #6

South Of Heaven /адепт ВУДУ
**************
Group: Металариец
Posts: 12,651
Releases: 7
From: Санкт-Петербург
On Forums: 8 years 4 months
Thanks: 4601 time(s)
Russian Federation


Вот ведь странное дело, вроде ну совсем ничего такого особенного, а всё равно понравилось, причём оба альбома, может я сегодня толерантный как никогда или просто извращенец по жизни (IMG:style_emoticons/default/1488.gif)
Go to the top of the page
  Insert nick Quick quote
+Quote Post

Reply to this topicStart new topic
1 User(s) are reading this topic (1 Guests and 0 Anonymous Users)
0 Members:

 



- Lo-Fi Version Support form
Copyrights and abuse reports form
Time is now: 20th August 2018 - 08:11:58