Welcome Guest ( Log In | Register )

> Releases Upload / Добавление релизов

Добавить релиз тут / Click here to add release
Рекомендованные обменники / Recommended file shares

> Icefire - The Torment Of The Damned (2018), Heavy Metal
post Feb 14 2018, 14:49:11
Post #1

Serial Uploader
Group Icon
Group: V.I.P
Posts: 31,423
Releases: 29758
From: Lithuania
On Forums: 9 years 8 months
Thanks: 341686 time(s)
Lithuania


(IMG:https://metalarea.org/images/audiocovers/2018_Feb/acov_tid301959_thumb.jpg)

*Artist: Icefire
*Album: The Torment Of The Damned
*Year: 2018
*Genre: Heavy Metal
*Country: United Kingdom (IMG:https://metalarea.org/forum/style_images/flags/United%20Kingdom.png)
*Format: mp3@CBR320kbps
*Size: 101MB

Tracklist:
01. Icefire
02. Crossing The Line
03. The Stalker
04. Photograph
05. The Highwayman
06. Banshee
07. Dead Of Night
08. Lord Of The Dance
******************************
Total playing time: 44:16



Technical info
(IMG:https://metalarea.org/images/spectrogram/2018_Feb/2c114bc111a8621722fd9911852bd7ba.png)
Input File: 02. Crossing the Line.mp3
Channels : 2
Sample Rate : 44100
Precision : 16-bit
Duration : 00:04:52.31 = 12891047 samples = 21923.5 CDDA sectors
File Size : 11.7M
Bit Rate : 320k
Sample Encoding: MPEG audio (layer I, II or III)
Comments :
Title=Crossing the Line
Artist=Icefire
Album=The Torment of the Damned
Tracknumber=2/8
Year=2018



Register


Вернуться к началу страницы
  Insert nick Quick quote
+Цитировать сообщение
 
Создать новую тему
Replies (1 - 3)
post Feb 14 2018, 20:28:27
Post #2

MDM-Thrash Metal
**************
Group: Металариец
Posts: 6,171
Releases: 401
From: Одесса
On Forums: 10 years 6 months
Thanks: 11709 time(s)
Ukraine


Register
Вернуться к началу страницы
  Insert nick Quick quote
+Цитировать сообщение
post Feb 15 2018, 06:44:47
Post #3

hearer & reader
**************
Group: Металариец
Posts: 5,986
Releases: 78
From: Moscow
On Forums: 10 years 5 months
Thanks: 6219 time(s)
Russian Federation


Своеобразный женский вокал, на любителя..
Вернуться к началу страницы
  Insert nick Quick quote
+Цитировать сообщение
post Feb 17 2018, 14:45:29
Post #4

Перевозчик
**************
Group: Металариец
Posts: 2,650
Releases: 0
On Forums: 9 years 7 months
Thanks: 529 time(s)
Russian Federation


Гумно.

Вернуться к началу страницы
  Insert nick Quick quote
+Цитировать сообщение

ОтветитьСоздать новую тему
1 User(s) are reading this topic (1 Guests and 0 Anonymous Users)
0 Members:

 



- Lo-Fi Version Support form
Copyrights and abuse reports form
Time is now: 21st February 2018 - 21:41:45