Welcome Guest ( Log In | Register )

 
ОтветитьСоздать новую тему
> Murder - The Heralds Of The Storm (2018), Death Metal (D11)
post Feb 14 2018, 15:15:01
Post #1

Serial Uploader
Group Icon
Group: V.I.P
Posts: 31,387
Releases: 29721
From: Lithuania
On Forums: 9 years 8 months
Thanks: 341407 time(s)
Lithuania


(IMG:https://metalarea.org/images/audiocovers/2018_Feb/acov_tid301960_thumb.jpg)

*Artist: Murder
*Album: The Heralds Of The Storm
*Year: 2018
*Genre: Death Metal
*Country: Ecuador (IMG:https://metalarea.org/forum/style_images/flags/Ecuador.png)
*Format: mp3@CBR320kbps
*Size: 80MB

Tracklist:
01. Toward The Cosmic Inferno 02:04
02. Reviving The Rebels 02:53
03. The Insane Power Of Chaos 03:18
04. The Heralds Of The Storm 04:29
05. Children Of Blame 03:55
06. Judgement 03:36
07. Victimized & Betrayed 05:24
08. Criminal Supremacy 03:40
09. Dying 04:08
10. Macabre Evolution 01:43
******************************
Total playing time: 35:10

(IMG:https://metalarea.org/images/myspace.png)

Technical info
(IMG:https://metalarea.org/images/spectrogram/2018_Feb/6fbe70084139448c67bc0a52c2020a40.png)
Input File: 02. Reviving the Rebels.mp3
Channels : 2
Sample Rate : 44100
Precision : 16-bit
Duration : 00:02:53.97 = 7671989 samples = 13047.6 CDDA sectors
File Size : 6.96M
Bit Rate : 320k
Sample Encoding: MPEG audio (layer I, II or III)
Comments :
Title=Reviving the Rebels
Artist=Murder
Album=The Heralds of Storm
Tracknumber=2/10
Year=2018



Register


Thanks:
Вернуться к началу страницы
  Insert nick Quick quote
+Цитировать сообщение

ОтветитьСоздать новую тему
1 User(s) are reading this topic (1 Guests and 0 Anonymous Users)
0 Members:

 



- Lo-Fi Version Support form
Copyrights and abuse reports form
Time is now: 18th February 2018 - 11:34:34