Welcome Guest ( Log In | Register )

> Matyrker - Emanation (2018), Progressive Metal
post Feb 14 2018, 15:22:44
Post #1

Serial Uploader
Group Icon
Group: V.I.P
Posts: 32,942
Releases: 31233
From: Lithuania
On Forums: 10 years 2 months
Thanks: 357648 time(s)
Lithuania


(IMG:https://metalarea.org/images/audiocovers/2018_Feb/acov_tid301961_thumb.jpg)

*Artist: Matyrker
*Album: Emanation
*Year: 2018
*Genre: Progressive Metal
*Country: United States (IMG:https://metalarea.org/forum/style_images/flags/United%20States.png)
*Format: mp3@CBR320kbps
*Size: 133MB

Tracklist:
01. Things That Fall
02. Alchemy
03. The Answer
04. Emanation, Pt. 1: Presence
05. Emanation, Pt. 2: Explore
06. Emanation, Pt. 3: Anguish
07. Emanation, Pt. 4: Isolation
08. Emanation, Pt. 5: Complacency
09. Burgeoning
10. When A Sliver Cuts Like A Shard
11. Fólkvangr
******************************
Total playing time: 58:31



Technical info
(IMG:https://metalarea.org/images/spectrogram/2018_Feb/14188b740d8460a5c7352d27cf945968.png)
Input File: 02. Alchemy.mp3
Channels : 2
Sample Rate : 44100
Precision : 16-bit
Duration : 00:03:44.96 = 9920912 samples = 16872.3 CDDA sectors
File Size : 9.00M
Bit Rate : 320k
Sample Encoding: MPEG audio (layer I, II or III)
Comments :
Title=Alchemy
Artist=Matyrker
Album=Emanation
Tracknumber=2
Year=2018
Genre=Metal
Discnumber=1



Register


Go to the top of the page
  Insert nick Quick quote
+Quote Post
 
Start new topic
Replies (1 - 1)
post Feb 14 2018, 19:01:10
Post #2

21st Century Schizoid Man
**************
Group: Металариец
Posts: 5,192
Releases: 67
From: Moscow
On Forums: 10 years 3 months
Thanks: 4092 time(s)
Russian Federation






Thanks:
Go to the top of the page
  Insert nick Quick quote
+Quote Post

Reply to this topicStart new topic
1 User(s) are reading this topic (1 Guests and 0 Anonymous Users)
0 Members:

 



- Lo-Fi Version Support form
Copyrights and abuse reports form
Time is now: 20th August 2018 - 08:12:05