Welcome Guest ( Log In | Register )

> Releases Upload / Добавление релизов

Добавить релиз тут / Click here to add release
Рекомендованные обменники / Recommended file shares

 
ОтветитьСоздать новую тему
> Depraved - Perverse Engorgements Of Inhumane Barbarities [ep] (2018), Brutal Death Metal/Deathcore (D11)
post Feb 14 2018, 15:42:10
Post #1

Serial Uploader
Group Icon
Group: V.I.P
Posts: 31,387
Releases: 29721
From: Lithuania
On Forums: 9 years 8 months
Thanks: 341407 time(s)
Lithuania


(IMG:https://metalarea.org/images/audiocovers/2018_Feb/acov_tid301962_thumb.jpg)

*Artist: Depraved
*Album: Perverse Engorgements Of Inhumane Barbarities [ep]
*Year: 2018
*Genre: Brutal Death Metal/Deathcore
*Country: New Zealand (IMG:https://metalarea.org/forum/style_images/flags/New%20Zealand.png)
*Format: mp3@CBR320kbps
*Size: 49MB

Tracklist:
01. Blasphemer 00:36
02. Spewing The Begotten (Feat. Alex Paul Of Organectomy) 03:59
03. Begging For Salvation 04:30
04. I, Belial 01:19
05. The Plague Of Christianity 04:57
06. Execution Of The Divine 05:59
******************************
Total playing time: 21:20




(IMG:https://metalarea.org/images/youtube.png)

Technical info
(IMG:https://metalarea.org/images/spectrogram/2018_Feb/3f6cf9abb0feea064f37e69c64ccbd1e.png)
Input File: 02. Spewing the Begotten (feat. Alex Paul of Organectomy).mp3
Channels : 2
Sample Rate : 44100
Precision : 16-bit
Duration : 00:03:59.41 = 10558025 samples = 17955.8 CDDA sectors
File Size : 9.58M
Bit Rate : 320k
Sample Encoding: MPEG audio (layer I, II or III)
Comments :
Title=Spewing the Begotten (feat. Alex Paul of Organectomy)
Artist=Depraved
Album=Perverse Engorgements of Inhumane Barbarities - EP
Tracknumber=2/6
Year=2018



Register


Вернуться к началу страницы
  Insert nick Quick quote
+Цитировать сообщение

ОтветитьСоздать новую тему
1 User(s) are reading this topic (1 Guests and 0 Anonymous Users)
0 Members:

 



- Lo-Fi Version Support form
Copyrights and abuse reports form
Time is now: 18th February 2018 - 11:38:39