Welcome Guest ( Log In | Register )

 
ОтветитьСоздать новую тему
> Erebos - Enter Erebos [ep] (2018), Melodic Death Metal/Metalcore (D9)
post Feb 14 2018, 15:50:45
Post #1

Serial Uploader
Group Icon
Group: V.I.P
Posts: 32,454
Releases: 30758
From: Lithuania
On Forums: 9 years 11 months
Thanks: 353346 time(s)
Lithuania


(IMG:https://metalarea.org/images/audiocovers/2018_Feb/acov_tid301963_thumb.jpg)

*Artist: Erebos
*Album: Enter Erebos [ep]
*Year: 2018
*Genre: Melodic Death Metal/Metalcore
*Country: Canada (IMG:https://metalarea.org/forum/style_images/flags/Canada.png)
*Format: mp3@CBR320kbps
*Size: 64MB

Tracklist:
01. Steadfast 05:23
02. Overseer 04:56
03. Beneath The Surface 07:01
04. Ice Warden 05:31
05. Call To Arms 05:01
******************************
Total playing time: 27:52





Technical info
(IMG:https://metalarea.org/images/spectrogram/2018_Feb/3812df9eba55e9307d8a26d2f44017cb.png)
Input File: 02. Overseer.mp3
Channels : 2
Sample Rate : 44100
Precision : 16-bit
Duration : 00:04:56.21 = 13062729 samples = 22215.5 CDDA sectors
File Size : 11.8M
Bit Rate : 320k
Sample Encoding: MPEG audio (layer I, II or III)
Comments :
Title=Overseer
Artist=Erebos
Album=Enter Erebos
Tracknumber=2/5
Year=2018



Register


Thanks:
Вернуться к началу страницы
  Insert nick Quick quote
+Цитировать сообщение

ОтветитьСоздать новую тему
1 User(s) are reading this topic (1 Guests and 0 Anonymous Users)
0 Members:

 



- Lo-Fi Version Support form
Copyrights and abuse reports form
Time is now: 23rd May 2018 - 12:09:49