Welcome Guest ( Log In | Register )

 
ОтветитьСоздать новую тему
> Hatred City - Ones [ep] (2018), Deathcore
post Feb 14 2018, 15:57:42
Post #1

Serial Uploader
Group Icon
Group: V.I.P
Posts: 32,452
Releases: 30751
From: Lithuania
On Forums: 9 years 11 months
Thanks: 353327 time(s)
Lithuania


(IMG:https://metalarea.org/images/audiocovers/2018_Feb/acov_tid301964_thumb.jpg)

*Artist: Hatred City
*Album: Ones [ep]
*Year: 2018
*Genre: Deathcore
*Country: Russian Federation (IMG:https://metalarea.org/forum/style_images/flags/Russian%20Federation.png)
*Format: mp3@CBR320kbps
*Size: 54MB

Tracklist:
01. FTB (Face The Butcher)
02. More
03. 11
04. Prove You Wrong
05. Machines
06. Alive
07. Fated, Pt. 2 (Feat. Denis Shane)
******************************
Total playing time: 23:43




(IMG:https://metalarea.org/images/youtube.png)

Technical info
(IMG:https://metalarea.org/images/spectrogram/2018_Feb/726ce69530c0f45c4db4550c434d7e7a.png)
Input File: 02. More.mp3
Channels : 2
Sample Rate : 44100
Precision : 16-bit
Duration : 00:03:20.22 = 8829878 samples = 15016.8 CDDA sectors
File Size : 8.01M
Bit Rate : 320k
Sample Encoding: MPEG audio (layer I, II or III)
Comments :
Title=More
Artist=Hatred City
Album=Ones
Tracknumber=2/7
Year=2018



Register


Thanks:
(2) Rosen, varlam4,
Вернуться к началу страницы
  Insert nick Quick quote
+Цитировать сообщение

ОтветитьСоздать новую тему
1 User(s) are reading this topic (1 Guests and 0 Anonymous Users)
0 Members:

 



- Lo-Fi Version Support form
Copyrights and abuse reports form
Time is now: 23rd May 2018 - 04:31:49