Welcome Guest ( Log In | Register )

> Endless Yawn - Speed Kills [ep] (2018), Sludge/Doom Metal
post Feb 14 2018, 16:11:52
Post #1

Правь статус, ####!111
**************
Group: Металариец
Posts: 33,530
Releases: 489
On Forums: 9 years 2 months
Thanks: 25557 time(s)
Russian Federation


(IMG:http://metalarea.org/images/audiocovers/2018_Feb/acov_tid301965_thumb.jpg)

*Artist: Endless Yawn
*Album: Speed Kills [ep]
*Year: 2018
*Genre: Sludge/Doom Metal
*Country: United States (IMG:http://metalarea.org/forum/style_images/flags/United%20States.png)
*Format: mp3@CBR320kbps
*Size: 64MB

Tracklist:
01. The Yawning 02:02
02. Daisy Cutter 03:57
03. Hash Void 05:37
04. Down Time Blues 06:02
05. Mountain To The Holy Highway 06:12
06. Dragonnot 03:41
******************************
Total playing time: 27:31



Technical info
(IMG:http://metalarea.org/images/spectrogram/2018_Feb/3065735afd08938a23d6d3a43734914c.png)
Input File: Endless Yawn - Speed Kills - 01 The Yawning.flac
Channels : 2
Sample Rate : 44100
Precision : 24-bit
Duration : 00:02:02.97 = 5423124 samples = 9223 CDDA sectors
File Size : 24.6M
Bit Rate : 1.60M
Sample Encoding: 24-bit FLAC
Comments :
TITLE=The Yawning
ARTIST=Endless Yawn
DATE=2018
COMMENT=Visit
ALBUM=Speed Kills
TRACKNUMBER=1
ALBUMARTIST=Endless Yawn



Register


Go to the top of the page
  Insert nick Quick quote
+Quote Post
 
Start new topic
Replies (1 - 2)
post Feb 14 2018, 16:26:24
Post #2

Правь статус, ####!111
**************
Group: Металариец
Posts: 33,530
Releases: 489
On Forums: 9 years 2 months
Thanks: 25557 time(s)
Russian Federation


Всё по делу, как надо, в духе правильной американской классики сырющего и злого сладжа. Ееее, хорошо!

@320

Register




Thanks:
Go to the top of the page
  Insert nick Quick quote
+Quote Post
post Mar 1 2018, 17:11:25
Post #3

Правь статус, ####!111
**************
Group: Металариец
Posts: 33,530
Releases: 489
On Forums: 9 years 2 months
Thanks: 25557 time(s)
Russian Federation


Начиная с Гашиша (IMG:style_emoticons/default/pray.gif) и далее - все просто обиздинительно, ааа.
Go to the top of the page
  Insert nick Quick quote
+Quote Post

Reply to this topicStart new topic
1 User(s) are reading this topic (1 Guests and 0 Anonymous Users)
0 Members:

 



- Lo-Fi Version Support form
Copyrights and abuse reports form
Time is now: 19th August 2018 - 13:06:55