Welcome Guest ( Log In | Register )

> Sunlight Reality - Metal Sanctions [ep] (2017), Modern Melodic Death Metal (D5)
post Feb 14 2018, 16:15:08
Post #1

Serial Uploader
Group Icon
Group: V.I.P
Posts: 33,290
Releases: 31566
From: Lithuania
On Forums: 10 years 5 months
Thanks: 360631 time(s)
Lithuania


(IMG:https://metalarea.org/images/audiocovers/2018_Feb/acov_tid301966_thumb.jpg)

*Artist: Sunlight Reality
*Album: Metal Sanctions [ep]
*Year: 2017
*Genre: Modern Melodic Death Metal
*Country: Russian Federation (IMG:https://metalarea.org/forum/style_images/flags/Russian%20Federation.png)
*Format: mp3@CBR320kbps
*Size: 45MB

Tracklist:
01. Autumn Divination 02:50
02. One Life One Show 03:02
03. Dancing In The Moonlight 03:15
04. The State Of Joy 03:13
05. Broken Dreams 03:31
06. Metal Invaders (Helloween Cover) 03:56
******************************
Total playing time: 19:47

(IMG:https://metalarea.org/images/myspace.png)


Preview 4


Technical info
(IMG:https://metalarea.org/images/spectrogram/2018_Feb/a15d4453babf8e53dd6d6dfcb553fb1e.png)
Input File: 02. One Life, One Show.mp3
Channels : 2
Sample Rate : 44100
Precision : 16-bit
Duration : 00:03:02.54 = 8049882 samples = 13690.3 CDDA sectors
File Size : 7.30M
Bit Rate : 320k
Sample Encoding: MPEG audio (layer I, II or III)
Comments :
Title=One Life, One Show
Artist=Sunlight Reality
Album=Metal Sanctions
Tracknumber=2/6
Year=2018



Register


Go to the top of the page
  Insert nick Quick quote
+Quote Post
 
Start new topic
Replies (1 - 1)
post Feb 17 2018, 11:24:39
Post #2

Ёлд ХеллоВяйне
Group Icon
Group: V.I.P
Posts: 26,257
Releases: 130
From: Питер
On Forums: 12 years 3 weeks
Thanks: 14522 time(s)
Russian Federation


QUOTE(necroscum @ 14th February 2018 - 18:15:08) *
06. Metal Invaders (Helloween Cover) 03:56


Вроде и мощно сыграли, но лиды какие-то не такие.
Go to the top of the page
  Insert nick Quick quote
+Quote Post

Reply to this topicStart new topic
1 User(s) are reading this topic (1 Guests and 0 Anonymous Users)
0 Members:

 



- Lo-Fi Version Support form
Copyrights and abuse reports form
Time is now: 18th November 2018 - 09:25:30