Welcome Guest ( Log In | Register )

> Vaelmyst - Earthly Wounds [ep] (2018), Melodic Death Metal
post Feb 14 2018, 18:49:08
Post #1

Аннигилятор пивА
Group Icon
Group: V.I.P
Posts: 50,462
Releases: 15669
From: Koenigsberg - TILZIT
On Forums: 12 years 5 months
Thanks: 340500 time(s)
Russian Federation


(IMG:https://metalarea.org/images/audiocovers/2018_Feb/acov_tid301968_thumb.jpg)

*Artist: Vaelmyst
*Album: Earthly Wounds [ep]
*Year: 2018
*Genre: Melodic Death Metal
*Country: United States (IMG:https://metalarea.org/forum/style_images/flags/United%20States.png)
*Format: mp3@CBR320kbps
*Size: 52MB

Tracklist:
1. Prologue 02:35
2. A Smothering of Moths 05:37
3. Watchers 05:34
4. In Darkness, in Tongues 04:54
5. Dear Esther 04:11
******************************
Total playing time: 22:51




Extended info
Jonathan V - Vocals
Ronny Lee Marks - Guitars
Tom Warner - Guitars
Jeff Martin - Bass
Dear Esther guitar solo written and performed by Fredrik Normann (October Tide, The Nighttime Project, Trees Of Eternity, Katatonia )


Technical info
(IMG:https://metalarea.org/images/spectrogram/2018_Feb/fc3da4c92704cbf774e4e5eed66617ed.png)
Input File: 2 A Smothering of Moths.mp3
Channels : 2
Sample Rate : 44100
Precision : 16-bit
Duration : 00:05:37.54 = 14885338 samples = 25315.2 CDDA sectors
File Size : 13.6M
Bit Rate : 323k
Sample Encoding: MPEG audio (layer I, II or III)
Comments :
Title=A Smothering of Moths
Artist=Vaelmyst
Album=Earthly Wounds
Tracknumber=2/5
Year=2018
Genre=9
Discnumber=1/1



Register


Go to the top of the page
  Insert nick Quick quote
+Quote Post
 
Start new topic
Replies (1 - 2)
post Feb 14 2018, 20:47:27
Post #2

MDM-Thrash Metal
**************
Group: Металариец
Posts: 7,247
Releases: 422
From: Одесса
On Forums: 11 years 3 months
Thanks: 13786 time(s)
Ukraine


ЦИТАТА(aesteticvice @ Feb 14 2018, 21:49:08) *
*Genre: Melodic Death Metal

(IMG:style_emoticons/default/6.gif)
Go to the top of the page
  Insert nick Quick quote
+Quote Post
post Feb 17 2018, 10:40:10
Post #3

Ёлд ХеллоВяйне
Group Icon
Group: V.I.P
Posts: 26,279
Releases: 130
From: Питер
On Forums: 12 years 3 weeks
Thanks: 14532 time(s)
Russian Federation


Отличный олдскульный МДМ, мясной такой, сырой, с кровью.


Thanks:
(1) Storky,
Go to the top of the page
  Insert nick Quick quote
+Quote Post

Reply to this topicStart new topic
1 User(s) are reading this topic (1 Guests and 0 Anonymous Users)
0 Members:

 



- Lo-Fi Version Support form
Copyrights and abuse reports form
Time is now: 21st November 2018 - 13:33:56