Welcome Guest ( Log In | Register )

 
ОтветитьСоздать новую тему
> Kill Athena - Ravaging All Within (2018), Technical Death Metal
post Feb 14 2018, 19:08:31
Post #1

Маньяк
**********
Group: Металариец
Posts: 1,081
Releases: 900
From: Одесса
On Forums: 9 years 11 months
Thanks: 6997 time(s)
Ukraine


(IMG:http://metalarea.org/images/audiocovers/2018_Feb/acov_tid301969_thumb.jpg)

*Artist: Kill Athena
*Album: Ravaging All Within
*Year: 2018
*Genre: Technical Death Metal
*Country: Indonesia (IMG:http://metalarea.org/forum/style_images/flags/Indonesia.png)
*Format: mp3@CBR128kbps (IMG:http://metalarea.org/images/bit_low.gif)
*Size: 34MB

Tracklist:
1. Glorious Begins 00:35 instrumental
2. Disaster 03:21
3. Concussion 03:08
4. Into Havoc 03:09
5. The (False) Salvation 03:58
6. Eradication Doom 04:54
7. Lecture Deceit 03:30
8. Sovereign 04:25
9. Artificial Perspectives 07:01
10. Ravaging All Within 01:57 instrumental
******************************
Total playing time: 35:58



Extended info
Line - up:

Teguh - Guitars (ex-Baby Frog)
Nuris - Drums
Ridho - Guitars
Lingga - Bass
Yogga - Vocals (Anal Torture, Fetal Bleeding, Gelgamesh, Nithael, Injury Deepen (live))

(IMG:https://f4.bcbits.com/img/0012607333_10.jpg)


Technical info
(IMG:http://metalarea.org/images/spectrogram/2018_Feb/39fe211464ef4a175f43c6d63e57a06d.png)
Input File: 04. Into Havoc.mp3
Channels : 2
Sample Rate : 44100
Precision : 16-bit
Duration : 00:03:09.47 = 8355495 samples = 14210 CDDA sectors
File Size : 3.03M
Bit Rate : 128k
Sample Encoding: MPEG audio (layer I, II or III)
Comments :
Title=Into Havoc
Artist=Kill Athena
Album=Ravaging All Within
Tracknumber=4
Year=2018
Genre=Technical Death Metal



Register


Thanks:
Вернуться к началу страницы
  Insert nick Quick quote
+Цитировать сообщение

ОтветитьСоздать новую тему
1 User(s) are reading this topic (1 Guests and 0 Anonymous Users)
0 Members:

 



- Lo-Fi Version Support form
Copyrights and abuse reports form
Time is now: 23rd May 2018 - 12:10:48