Welcome Guest ( Log In | Register )

> Blizzard - Hateful Hymns Of An Endless Winter (2017), Black Metal
post Feb 14 2018, 19:49:41
Post #1

Аннигилятор пивА
Group Icon
Group: V.I.P
Posts: 46,692
Releases: 14016
From: Koenigsberg - TILZIT
On Forums: 11 years 11 months
Thanks: 310866 time(s)
Russian Federation


(IMG:https://metalarea.org/images/audiocovers/2018_Feb/acov_tid301971_thumb.jpg)

*Artist: Blizzard
*Album: Hateful Hymns Of An Endless Winter
*Year: 2017
*Genre: Black Metal
*Country: Argentina (IMG:https://metalarea.org/forum/style_images/flags/Argentina.png)
*Format: mp3@CBR320kbps
*Size: 95MB

Tracklist:
01. Unleashing The Storm
02. Revelations Of Forbidden Wisdom
03. Crevices Of Our World
04. The Star That Fell In The Earth
05. Southern Fields Of War
06. An Ancient Call
07. Our Black Metal
******************************
Total playing time: 41:31

Extended info
Cold Black Metal from Argentina




Technical info
(IMG:https://metalarea.org/images/spectrogram/2018_Feb/5a5050e91713bac673cbd48416232622.png)
Input File: 04 The star that fell in the earth.mp3
Channels : 2
Sample Rate : 44100
Precision : 16-bit
Duration : 00:06:09.61 = 16299933 samples = 27721 CDDA sectors
File Size : 14.8M
Bit Rate : 320k
Sample Encoding: MPEG audio (layer I, II or III)
Comments :
Title=The star that fell in the earth
Artist=Blizzard
Album=Hateful Hymns of an Endless Winter
Tracknumber=4/7
Year=2017
Genre=Black Metal
Discnumber=1/1



Register


Вернуться к началу страницы
  Insert nick Quick quote
+Цитировать сообщение
 
Создать новую тему
Replies (1 - 2)
post Feb 14 2018, 19:57:32
Post #2

Правь статус, ####!111
**************
Group: Металариец
Posts: 30,811
Releases: 477
On Forums: 8 years 11 months
Thanks: 23851 time(s)
Russian Federation


@320

Register


Thanks:
Вернуться к началу страницы
  Insert nick Quick quote
+Цитировать сообщение
post Feb 14 2018, 20:06:32
Post #3

Аннигилятор пивА
Group Icon
Group: V.I.P
Posts: 46,692
Releases: 14016
From: Koenigsberg - TILZIT
On Forums: 11 years 11 months
Thanks: 310866 time(s)
Russian Federation


mirror
Register


Вернуться к началу страницы
  Insert nick Quick quote
+Цитировать сообщение

ОтветитьСоздать новую тему
1 User(s) are reading this topic (1 Guests and 0 Anonymous Users)
0 Members:

 



- Lo-Fi Version Support form
Copyrights and abuse reports form
Time is now: 23rd May 2018 - 12:09:32