Welcome Guest ( Log In | Register )

> Anal Cockroach - Doomkeeper (2018), Death Metal
post Feb 14 2018, 20:19:29
Post #1

Маньяк
**********
Group: Металариец
Posts: 1,346
Releases: 1137
From: Одесса
On Forums: 10 years 2 months
Thanks: 8840 time(s)
Ukraine


(IMG:http://metalarea.org/images/audiocovers/2018_Feb/acov_tid301975_thumb.jpg)

*Artist: Anal Cockroach
*Album: Doomkeeper
*Year: 2018
*Genre: Death Metal
*Country: United States (IMG:http://metalarea.org/forum/style_images/flags/United%20States.png)
*Format: mp3@CBR320kbps
*Size: 90MB

Tracklist:
1. Roachswarm 03:04
2. Failed Apostasy 04:18
3. Transcended Transformation 03:46
4. Terror Dominion 02:30
5. Labyrinthine Echoes 04:22
6. Procreation ov Infestation 04:05
7. Entropic Malice 02:30
8. Void Deliverance 01:17
9. Unraveling Reality's Veil 12:21
******************************
Total playing time: 38:13



Technical info
(IMG:http://metalarea.org/images/spectrogram/2018_Feb/088ab87084ef1066e8a68a60db2940cc.png)
Input File: 05. Labyrinthine Echoes.mp3
Channels : 2
Sample Rate : 48000
Precision : 16-bit
Duration : 00:04:22.20 = 12585744 samples ~ 19665.2 CDDA sectors
File Size : 10.5M
Bit Rate : 320k
Sample Encoding: MPEG audio (layer I, II or III)
Comments :
Title=Labyrinthine Echoes
Artist=Anal Cockroach
Album=Doomkeeper
Tracknumber=5
Year=2018
Genre=22



Register


Thanks:
Go to the top of the page
  Insert nick Quick quote
+Quote Post
 
Start new topic
Replies (1 - 6)
post Feb 15 2018, 01:15:08
Post #2

на аватаре не я
**************
Group: Металариец
Posts: 4,297
Releases: 5
From: "Самопровозглашенная ДНР" (с)
On Forums: 9 years 1 month
Thanks: 2002 time(s)
Russian Federation


Уважаю группы с подобными названиями, но музыка здесь - это наглядный пример одного балла из десяти. Полное мракобесие ))


Thanks:
Go to the top of the page
  Insert nick Quick quote
+Quote Post
post Feb 15 2018, 07:25:46
Post #3

:3
**************
Group: Металариец
Posts: 4,421
Releases: 103
From: Novosibirsk
On Forums: 10 years 10 months
Thanks: 3563 time(s)
Russian Federation


Какое-то аццкое месиво, где там музыка вообще? (IMG:style_emoticons/default/headcrab.png)
Go to the top of the page
  Insert nick Quick quote
+Quote Post
post Feb 15 2018, 07:54:34
Post #4

MDM-Thrash Metal
**************
Group: Металариец
Posts: 6,966
Releases: 412
From: Одесса
On Forums: 11 years 1 week
Thanks: 13268 time(s)
Ukraine


ЦИТАТА(Necrokilldozer @ Feb 14 2018, 23:19:29) *
*Genre: Death Metal

Бля, какой ужас (IMG:style_emoticons/default/fear.gif)


Thanks:
Go to the top of the page
  Insert nick Quick quote
+Quote Post
post Feb 15 2018, 11:44:15
Post #5

Фантаст
***
Group: Завсегдатай
Posts: 250
Releases: 0
From: Москва
On Forums: 11 years 11 months
Thanks: 104 time(s)
Russian Federation


Название отличное, но записано, судя по всему, в туалете на диктофон. Даже Варг такого себе не позволял!
Go to the top of the page
  Insert nick Quick quote
+Quote Post
post Feb 18 2018, 04:47:58
Post #6

Going home. Flying high.
**************
Group: Металариец
Posts: 12,263
Releases: 0
From: The Land of Shadows
On Forums: 12 years 5 days
Thanks: 17190 time(s)
Russian Federation


да енто Варговы дети, небось, и записали! в том самом туалете))
Go to the top of the page
  Insert nick Quick quote
+Quote Post
post Feb 18 2018, 09:23:57
Post #7

Full-of-Hate
**************
Group: Металариец
Posts: 2,093
Releases: 0
On Forums: 9 years 1 month
Thanks: 1410 time(s)
Russian Federation


И мы еще ругаем с вами vk-метал. Главным мусорным ресурсом давно стал bandcamp, в основном за счет таких вот коллективов. На самом деле не Death Metal перед нами вовсе, а очень низкочастотный грубый noise с низким вокалом для хаотичных выкриков.

Надеюсь, что любители Noise этот говношедевр оценят. На правах любителя Death Metal ставлю 0/10. Просто потому что этого релиза не существует в жанре и в мире музыки.
Go to the top of the page
  Insert nick Quick quote
+Quote Post

Reply to this topicStart new topic
1 User(s) are reading this topic (1 Guests and 0 Anonymous Users)
0 Members:

 



- Lo-Fi Version Support form
Copyrights and abuse reports form
Time is now: 21st August 2018 - 22:46:55