Welcome Guest ( Log In | Register )

> Hand Of Glory - To Mollest The Dreaming [demo] (2015), Black Metal
post Feb 15 2018, 07:35:33
Post #1

...
Group Icon
Group: S-moderation team
Posts: 6,272
Releases: 1276
On Forums: 7 years 4 months
Thanks: 31883 time(s)
Croatia


(IMG:http://metalarea.org/images/audiocovers/2018_Feb/acov_tid301988_thumb.jpg)

*Artist: Hand Of Glory
*Album: To Mollest The Dreaming [demo]
*Year: 2015
*Genre: Black Metal
*Country: United States (IMG:http://metalarea.org/forum/style_images/flags/United%20States.png)
*Format: mp3@VBR250kbps
*Size: 66MB

Tracklist:
1. Curses of Nightgaunt Sorcery 07:25
2. Romancing the Corpses at Night 04:44
3. Deathvessel 03:53
4. Undecayed Dynasties of Imperial Vampire 01:44
5. To Molest the Dreaming... 00:37
6. Ghostly Chambers in Soulless Chasm 10:20
7. Gruesome Esoteric Pedophilia 07:21
******************************
Total playing time: 36:04

Extended info
House of First Light cassette, 150 copies.


Technical info
(IMG:http://metalarea.org/images/spectrogram/2018_Feb/dbc9b2dd114836308c8e3951fc25f364.png)
Input File: 01 Curses Of Nightgaunt Sorcery.mp3
Channels : 2
Sample Rate : 44100
Precision : 16-bit
Duration : 00:07:25.49 = 19646197 samples = 33411.9 CDDA sectors
File Size : 13.4M
Bit Rate : 240k
Sample Encoding: MPEG audio (layer I, II or III)
Comments :
Title=Curses Of Nightgaunt Sorcery
Artist=Hand Of Glory
Album=To Mollest The Dreaming...
Tracknumber=01/7
Year=2015
Genre=Black Metal
Discnumber=1/1



Register


Go to the top of the page
  Insert nick Quick quote
+Quote Post
 
Start new topic
Replies (1 - 2)
post Feb 17 2018, 17:15:37
Post #2

Маньяк
**********
Group: Металариец
Posts: 1,483
Releases: 23
From: Spain
On Forums: 10 years 10 months
Thanks: 1122 time(s)
Spain


QUOTE
Go to the top of the page
  Insert nick Quick quote
+Quote Post
post Jul 12 2018, 06:15:01
Post #3

Правь статус, ####!111
**************
Group: Металариец
Posts: 3,242
Releases: 600
From: Brazil
On Forums: 6 years 5 months
Thanks: 24311 time(s)
Brazil


Register

Label: Livor Mortis / Release date: 2018
vinyl rip by metallicimagery


Thanks:
(1) varg-38ru,
Go to the top of the page
  Insert nick Quick quote
+Quote Post

Reply to this topicStart new topic
2 User(s) are reading this topic (2 Guests and 0 Anonymous Users)
0 Members:

 



- Lo-Fi Version Support form
Copyrights and abuse reports form
Time is now: 17th July 2018 - 20:20:21