Welcome Guest ( Log In | Register )

> Methysos - Jukai (2018), Folk Metal
post Feb 16 2018, 09:33:08
Post #1

Правь статус, ####!111
**************
Group: Металариец
Posts: 22,342
Releases: 15480
From: Г.Харьков
On Forums: 8 years 2 months
Thanks: 283378 time(s)
Unknown


(IMG:https://metalarea.org/images/audiocovers/2018_Feb/acov_tid302056_thumb.jpg)

*Artist: Methysos
*Album: Jukai
*Year: 2018
*Genre: Folk Metal
*Country: Cyprus (IMG:https://metalarea.org/forum/style_images/flags/Cyprus.png)
*Format: mp3@CBR320kbps
*Size: 107MB

Tracklist:
1. Shinigami
2. Witches Broom
3. King Michael III
4. Andvaranaut
5. Aokigahara
6. Rise Of Olympus
7. Eudora
8. Momotaro
9. Folkatroll
10. Thalassokrator
11. Koftos
******************************
Total playing time: 46:48

Preview 1


Extended info
Mario 'Kenji': Vocals, Bass, Mandolin
George 'Satyr0s': Drums and Percussions
George 'Zeus': Guitars
C.K. 'the Madman': Keyboards
Nidal: Guitars


Technical info
(IMG:https://metalarea.org/images/spectrogram/2018_Feb/dd3f81de0960444104f939437fd1f9c8.png)
Input File: 03 King Michael III.mp3
Channels : 2
Sample Rate : 44100
Precision : 16-bit
Duration : 00:04:30.68 = 11936988 samples = 20301 CDDA sectors
File Size : 10.9M
Bit Rate : 321k
Sample Encoding: MPEG audio (layer I, II or III)
Comments :
Title=King Michael III
Artist=Methysos
Album=Jukai
Tracknumber=3
Year=2018



Register


Go to the top of the page
  Insert nick Quick quote
+Quote Post
 
Start new topic
Replies (1 - 3)
post Feb 16 2018, 10:21:57
Post #2

Правь статус, ####!111
**************
Group: Металариец
Posts: 22,342
Releases: 15480
From: Г.Харьков
On Forums: 8 years 2 months
Thanks: 283378 time(s)
Unknown


Register


Thanks:
(1) Woosad,
Go to the top of the page
  Insert nick Quick quote
+Quote Post
post Feb 16 2018, 14:23:44
Post #3

┐( ̄ー ̄)┌
******
Group: Металариец
Posts: 581
Releases: 0
On Forums: 11 years 5 months
Thanks: 491 time(s)
Russian Federation








Thanks:
Go to the top of the page
  Insert nick Quick quote
+Quote Post
post Jun 26 2019, 00:53:45
Post #4

FOLK METAL FEVER
**************
Group: Металариец
Posts: 2,087
Releases: 6
From: Kyiv
On Forums: 12 years 8 months
Thanks: 277 time(s)
Ukraine


Звук стал лучше, чем на 2016-ом, но материал унылый.
Go to the top of the page
  Insert nick Quick quote
+Quote Post

Reply to this topicStart new topic
2 User(s) are reading this topic (2 Guests and 0 Anonymous Users)
0 Members:

 



- Lo-Fi Version Support form
Copyrights and abuse reports form
Time is now: 13th July 2020 - 05:48:07