Welcome Guest ( Log In | Register )

> Toxocara Canis & Chikara & Coke Nail - 3 Way Split (2018), Goregrind | Hardcore/Crust | Grindcore/Noisegrind
post Feb 20 2018, 16:03:40
Post #1

Serial Uploader
Group Icon
Group: V.I.P
Posts: 35,861
Releases: 34042
From: Lithuania
On Forums: 11 years 2 months
Thanks: 393478 time(s)
Lithuania


(IMG:https://metalarea.org/images/audiocovers/2018_Feb/acov_tid302259_thumb.jpg)

*Artist: Toxocara Canis & Chikara & Coke Nail
*Album: 3 Way Split
*Year: 2018
*Genre: Goregrind | Hardcore/Crust | Grindcore/Noisegrind
*Country: United States (IMG:https://metalarea.org/forum/style_images/flags/United%20States.png) | Sweden (IMG:https://metalarea.org/forum/style_images/flags/Sweden.png) | United States (IMG:https://metalarea.org/forum/style_images/flags/United%20States.png)
*Format: mp3@CBR320kbps
*Size: 34MB

Tracklist:
Toxocara Canis:
01. Porcum Oculus Interficiam Dimidium 00:53
02. Postmortem Examination 02:07
03. W.V.R.M. 00:11
04. Eosinophilic Granulomatous Mass 00:31
05. Entrapped Larvae 00:50
Chikara:
06. Commercials 02:05
07. Motherfucking White Flag 03:07
Coke Nail:
08. Bender To Heaven 00:30
09. 30 Rack 00:15
10. Fuck Space 00:18
11. We Seek Beer 00:06
12. Kiss Me Where The Atmoshere Smells Funny 01:27
13. Pure Fuck 00:18
14. Irritable Ben Syndrome 00:19
15. Sloppy Living 00:43
16. Minute Of Elation 01:00
******************************
Total playing time: 14:40




(IMG:https://metalarea.org/images/youtube.png)

Technical info
(IMG:https://metalarea.org/images/spectrogram/2018_Feb/a321309ed80016fff0e3ec6afab1defd.png)
Input File: 04. Eosinophilic Granulomatous Mass.mp3
Channels : 2
Sample Rate : 44100
Precision : 16-bit
Duration : 00:00:31.82 = 1403262 samples = 2386.5 CDDA sectors
File Size : 1.40M
Bit Rate : 352k
Sample Encoding: MPEG audio (layer I, II or III)
Comments :
Title=Eosinophilic Granulomatous Mass
Artist=Toxocara Canis
Album=3 way split
Tracknumber=4



Register


Go to the top of the page
  Insert nick Quick quote
+Quote Post
 
Start new topic
Replies (1 - 2)
post Oct 27 2018, 12:15:30
Post #2

Split Backup Copy
**************
Group: Металариец
Posts: 5,194
Releases: 243
From: с. Мизоново, Ишимский Район, Тюменская область
On Forums: 11 years 8 months
Thanks: 3443 time(s)
Russian Federation


Перезалейте, пожалуйста.
Go to the top of the page
  Insert nick Quick quote
+Quote Post
post Nov 6 2018, 20:03:43
Post #3

Правь статус, ####!111
**************
Group: Металариец
Posts: 6,625
Releases: 0
From: Москва
On Forums: 10 years 2 weeks
Thanks: 12798 time(s)
Russian Federation


Register
320


Go to the top of the page
  Insert nick Quick quote
+Quote Post

Reply to this topicStart new topic
2 User(s) are reading this topic (2 Guests and 0 Anonymous Users)
0 Members:

 



- Lo-Fi Version Support form
Copyrights and abuse reports form
Time is now: 23rd August 2019 - 00:01:55