Welcome Guest ( Log In | Register )

> Eleine - Until The End (2018), Symphonic Metal (D4)
post Feb 22 2018, 14:45:53
Post #1

Serial Uploader
Group Icon
Group: V.I.P
Posts: 33,063
Releases: 31348
From: Lithuania
On Forums: 10 years 3 months
Thanks: 358610 time(s)
Lithuania


(IMG:https://metalarea.org/images/audiocovers/2018_Feb/acov_tid302364_thumb.jpg)

*Artist: Eleine
*Album: Until The End
*Year: 2018
*Genre: Symphonic Metal
*Country: Sweden (IMG:https://metalarea.org/forum/style_images/flags/Sweden.png)
*Format: mp3@CBR320kbps
*Size: 90MB

Tracklist:
01. Story Untold 05:05
02. Echoes 04:06
03. Sanity 03:59
04. From The Grave 04:13
05. Whisper My Child 03:54
06. Until The End 04:51
07. Please 04:02
08. Another Rite 04:05
09. Hell Moon (We Shall Never Die) 04:30
10. Prelude: Arise 00:41
11. Break Take Live 03:56
******************************
Total playing time: 43:22


(IMG:https://metalarea.org/images/youtube.png)

Technical info
(IMG:https://metalarea.org/images/spectrogram/2018_Feb/1a00405449aa14971d807e359978556a.png)
Input File: 02-eleine-echoes-9e28a446.mp3
Channels : 2
Sample Rate : 44100
Precision : 16-bit
Duration : 00:04:06.23 = 10858743 samples = 18467.2 CDDA sectors
File Size : 9.85M
Bit Rate : 320k
Sample Encoding: MPEG audio (layer I, II or III)
Comments :
Title=Echoes
Artist=Eleine
Album=Until the End
Tracknumber=2/11
Year=2018
Genre=9



Register


Go to the top of the page
  Insert nick Quick quote
+Quote Post
 
Start new topic
Replies (1 - 3)
post Feb 24 2018, 17:34:26
Post #2

Мегаманьяк
***********
Group: Металариец
Posts: 1,783
Releases: 0
From: Мытищи
On Forums: 10 years 6 months
Thanks: 997 time(s)
Russian Federation



Go to the top of the page
  Insert nick Quick quote
+Quote Post
post Mar 15 2018, 13:11:15
Post #3

Два Литра
**
Group: Завсегдатай
Posts: 183
Releases: 0
From: Belarus
On Forums: 9 years 6 months
Thanks: 50 time(s)
Belarus


Beyond the Black напомнили.
Приятный материал.
Go to the top of the page
  Insert nick Quick quote
+Quote Post
post Apr 16 2018, 18:39:12
Post #4

Мегаманьяк
***********
Group: Металариец
Posts: 1,783
Releases: 0
From: Мытищи
On Forums: 10 years 6 months
Thanks: 997 time(s)
Russian Federation


При всем переедании в этом довольно приторном стиле, альбом слушаю с удовольствием. Пару раз уже прогнал, и нет желания убрать из плеера)
А может на сладкое потянуло после глубокого погружения в трэштрясину 80х в Сатурналиях (IMG:style_emoticons/default/smile1.gif)
Go to the top of the page
  Insert nick Quick quote
+Quote Post

Reply to this topicStart new topic
1 User(s) are reading this topic (1 Guests and 0 Anonymous Users)
0 Members:

 



- Lo-Fi Version Support form
Copyrights and abuse reports form
Time is now: 22nd September 2018 - 08:44:47