Welcome Guest ( Log In | Register )

> Wake - Misery Rites (2018), Grindcore/Crust (D7)
post Feb 22 2018, 15:54:58
Post #1

Serial Uploader
Group Icon
Group: V.I.P
Posts: 33,122
Releases: 31406
From: Lithuania
On Forums: 10 years 4 months
Thanks: 359193 time(s)
Lithuania


(IMG:https://metalarea.org/images/audiocovers/2018_Feb/acov_tid302377_thumb.jpg)

*Artist: Wake
*Album: Misery Rites
*Year: 2018
*Genre: Grindcore/Crust
*Country: Canada (IMG:https://metalarea.org/forum/style_images/flags/Canada.png)
*Format: mp3@CBR320kbps
*Size: 57MB

Tracklist:
01. Exhumation 02:19
02. Misery Rites 02:10
03. Embers 02:22
04. Rot 02:01
05. Paradigm Lost 03:38
06. Exile 02:49
07. Rumination 01:33
08. Bitter Winter 02:28
09. Burial Ground 07:38
******************************
Total playing time: 26:58

(IMG:https://metalarea.org/images/myspace.png)



Technical info
(IMG:https://metalarea.org/images/spectrogram/2018_Feb/b5b24cb276b837d46b0aa69cfd98aafa.png)
Input File: 03-wake-embers-618af680.mp3
Channels : 2
Sample Rate : 44100
Precision : 16-bit
Duration : 00:02:22.44 = 6281428 samples = 10682.7 CDDA sectors
File Size : 5.70M
Bit Rate : 320k
Sample Encoding: MPEG audio (layer I, II or III)
Comments :
Title=Embers
Artist=Wake
Album=Misery Rites
Tracknumber=3/9
Year=2018
Genre=9



Register


Go to the top of the page
  Insert nick Quick quote
+Quote Post
 
Start new topic
Replies (1 - 4)
post Feb 22 2018, 18:08:09
Post #2

MDM-Thrash Metal
**************
Group: Металариец
Posts: 7,148
Releases: 421
From: Одесса
On Forums: 11 years 2 months
Thanks: 13631 time(s)
Ukraine


Register


Go to the top of the page
  Insert nick Quick quote
+Quote Post
post Mar 16 2018, 08:43:13
Post #3

Литр
*
Group: Подсевший
Posts: 91
Releases: 0
On Forums: 8 years 9 months
Thanks: 21 time(s)
Belarus


Мощнейший альбом!!! (IMG:style_emoticons/default/metaler.gif) (IMG:style_emoticons/default/metaler.gif) (IMG:style_emoticons/default/metaler.gif)
Go to the top of the page
  Insert nick Quick quote
+Quote Post
post May 16 2018, 20:21:48
Post #4

Правь статус, ####!111
**************
Group: Металариец
Posts: 2,657
Releases: 0
From: Одесса
On Forums: 10 years 7 months
Thanks: 1058 time(s)
Ukraine


this grind death is called here crust (IMG:style_emoticons/default/hmm.gif)
Go to the top of the page
  Insert nick Quick quote
+Quote Post
post May 16 2018, 20:28:12
Post #5
BAN
Banned till
Nov 2 2018, 12:28:53



Точно грайнд/краст?
Go to the top of the page
  Insert nick Quick quote
+Quote Post

Reply to this topicStart new topic
1 User(s) are reading this topic (1 Guests and 0 Anonymous Users)
0 Members:

 



- Lo-Fi Version Support form
Copyrights and abuse reports form
Time is now: 17th October 2018 - 04:55:32